Loading...
Error

Большое приключение / La gran aventura (Роберто Родригес) [1969 г., приключения, семейный, DVDRip] VO + Original + Subs

Статистика раздачи
Размер:  1,51 GB   |    Зарегистрирован:  9 месяцев   |    Скачан:  5 раз

Полного источника не было: 6 месяцев

Сидов:  0  |  0 KB/s  ]   Личеров:  0  |  0 KB/s  ]

* - сиды/пиры с внешних источников

   
 
Автор Сообщение

makkol Пол:Муж

04-Фев-2016 16:08

Большое приключение / La gran aventura


Год выпуска: 1969
Жанр: приключения, семейный
Страна: Мексика
Режиссер: Роберто Родригес
В ролях: Нино Дель Арко, Хулиансито Браво, Дасиа Гонсалес, Дагоберто Родригес, Беатрис Бас, Рауль Мерас, Эдуардо Алькарас, Сюзанна Кабрера, Антонио Раксель, Гильермо Алварез Бьянчи, Рауль Падилла, Викторио Бланко, Иисус Гомез
Сюжет фильма:
Девятилетний Хуанито с родителями прилетает в отпуск из Испании в Мексику, где встречается с мексиканским мальчиком Пепе и собакой Джеки. Затем они попадают в переплёт, грозящий приводом в полицию. Сбежав от полиции, мальчики теряются в незнакомом городе. Теперь им предстоит, всячески избегая полиции и по ходу дела преодолевая культурно-языковые различия, встретиться с родителями. Объявленная через прессу отцом Хуанито награда за находку мальчика производит непредвиденное действие на алчное народонаселение, что добавляет остроты и комичности последующим приключениям, побегам и погоням.

Качество видео: DVDRip

Продолжительность: 01:42:14
Формат: AVI
Видео: XviD, 720x544 (4:3), 23.976 fps, 1683 kbps
Аудио #1: русский, любительский одноголосый закадровый (viktor_2838), MP3 2.0, 48 kHz, 192 kbps
Аудио #2: испанский, оригинал, AC3 2.0, 48 kHz, 224 kbps
Субтитры: русские (andrsib), английские внешние, SRT

Код:

Общее
Полное имя                               : La.gran.aventura.1969.DVDRip.avi
Формат                                   : AVI
Формат/Информация                        : Audio Video Interleave
Размер файла                             : 1,51 Гбайт
Продолжительность                        : 1 ч. 42 м.
Общий поток                              : 2112 Кбит/сек
Программа кодирования                    : VirtualDubModRus 1.5.10.2 (build 2542/release)
Библиотека кодирования                   : VirtualDubMod build 2542/release

Видео
Идентификатор                            : 0
Формат                                   : MPEG-4 Visual
Профиль формата                          : Advanced Simple@L5
Параметр BVOP формата                    : 1
Параметр QPel формата                    : Нет
Параметр GMC формата                     : Без точки перехода
Параметр матрицы формата                 : Выборочная
Идентификатор кодека                     : XVID
Идентификатор кодека/Подсказка           : XviD
Продолжительность                        : 1 ч. 42 м.
Битрейт                                  : 1683 Кбит/сек
Ширина                                   : 720 пикселей
Высота                                   : 544 пикселя
Соотношение сторон                       : 4:3
Частота кадров                           : 23,976 кадра/сек
Цветовое пространство                    : YUV
Субдискретизация насыщенности            : 4:2:0
Битовая глубина                          : 8 бит
Тип развёртки                            : Прогрессивная
Метод сжатия                             : С потерями
Бит/(Пиксели*Кадры)                      : 0.179
Размер потока                            : 1,20 Гбайт (80%)
Библиотека кодирования                   : XviD 64

Аудио #1
Идентификатор                            : 1
Формат                                   : MPEG Audio
Версия формата                           : Version 1
Профиль формата                          : Layer 3
Режим                                    : Joint stereo
Расширение режима                        : MS Stereo
Идентификатор кодека                     : 55
Идентификатор кодека/Подсказка           : MP3
Продолжительность                        : 1 ч. 42 м.
Вид битрейта                             : Постоянный
Битрейт                                  : 192 Кбит/сек
Каналы                                   : 2 канала
Частота                                  : 48,0 КГц
Метод сжатия                             : С потерями
Размер потока                            : 140 Мбайт (9%)
Выравнивание                             : Соединение по промежуткам
Продолжительность промежутка             : 42  мс. (1,00 видеокадр)
Время предзагрузки промежутка            : 504  мс.

Аудио #2
Идентификатор                            : 2
Формат                                   : AC-3
Формат/Информация                        : Audio Coding 3
Расширение режима                        : CM (complete main)
Параметр Endianness формата              : Big
Идентификатор кодека                     : 2000
Продолжительность                        : 1 ч. 42 м.
Вид битрейта                             : Постоянный
Битрейт                                  : 224 Кбит/сек
Каналы                                   : 2 канала
Расположение каналов                     : Front: L R
Частота                                  : 48,0 КГц
Метод сжатия                             : С потерями
Размер потока                            : 164 Мбайт (11%)
Выравнивание                             : Разделение по промежуткам
Продолжительность промежутка             : 42  мс. (1,00 видеокадр)
Время предзагрузки промежутка            : 500  мс.
picpicpicpicpic
Для увеличения картинки щелкните мышкой по превью

Этот торрент недоступен для скачивания без регистрации, однако доступен по публичной magnet-ссылке (источники с публичных трекеров). Перед использованием ссылки прочтите, пожалуйста Пользовательское соглашение, а также как можно дольше оставайтесь на раздаче! Для того, чтобы скачать сам торрент-файл (который видит больше источников), а также для того, чтобы поблагодарить релизера, вам необходимо зарегистрироваться. Если регистрироваться лень - вы можете также попробовать скачать релиз по нашим партнерским ссылкам ниже.

[underverse.su].t62690.torrent
Трекер: Зарегистрирован   [ 04.02.2016 16:08 ]  

Статус: проверено (by makkol at 05.02.2016 23:10)
Поблагодарили: пока никто не поблагодарил...
Тип торрента: публичный - доступные источники с открытых трекеров: 
Размер: 1,51 GB (занимает 0,34 DVDR, для записи нужно 1 болванка DVDR/RW)
 
 
Похожие темы
Форум Тема Автор Торрент Отв. Посл. сооб.
Зарубежное кино [DVDRip, Low-Res HDRip, и т.д.] Большое приключение Рейнджера / Bark Ranger (Дункан Кристи) [2015 г., семейный, комедия, приключения, DVDRip] VO + Original makkol
18 | 0

0 | 1197

1

27.09.2015 14:52


Яндекс.Метрика powered by Sphinx


В Н И М А Н И Е
Сайт не распространяет и не хранит электронные версии произведений, а лишь бесплатно и без коммерческой выгоды (не требуя взамен платы,
SMS и т.д.) предоставляет доступ к создаваемому пользователями каталогу ссылок на торрент-файлы, которые содержат только списки хеш-сумм.
Убедительная просьба с жалобами обращаться напрямую к пользователю, разместившему торрент файл.

Вверх