Loading...
Error

Взлом / Home Invasion (Дэвид Теннант) [2016 г., триллер, WEB-DLRip] MVO

Статистика раздачи
Размер:  1,37 GB   |    Зарегистрирован:  10 месяцев   |    Скачан:  45 раз
Сидов:  1  |  0 KB/s  ]   Личеров:  0  |  0 KB/s  ]

* - сиды/пиры с внешних источников

   
 
Автор Сообщение

makkol Пол:Муж

31-Янв-2016 22:41

Взлом / Home Invasion


Год выпуска: 2016
Жанр: триллер
Производство: США [ARO Entertainment, Odyssey Media, TAJJ Media]
Режиссер: Дэвид Теннант
В ролях: Наташа Хенстридж, Джейсон Патрик, Скотт Эдкинс, Лиам Дикинсон, Майкл Роджерс, Кристиан Тессьер, Бренда Кричлоу
Сюжет фильма:
Ужас приходит к персонажам этого психологического триллера в месте, которое они считали самым безопасным. В своем загородном доме, состоятельная дама со своим приемным сыном становятся жертвой нападения трех изощренных и беспощадных воров. Единственная их надежда на спасение - это оператор службы домашней сигнализации на другом конце телефона. Сможет ли он стать глазами пленников собственного дома и помочь им выбраться из кошмара наяву?

  • Мировая премьера: 1 февраля 2016


Качество видео: WEB-DLRip

Продолжительность: 01:28:31
Формат: AVI
Видео: XviD, 720x400 (16:9), 23.976 fps, 1814 kbps
Аудио: русский, профессиональный многоголосый закадровый (iTunes), AC3 5.1, 48 kHz, 384 kbps

Код:

Общее
Формат                                   : AVI
Формат/Информация                        : Audio Video Interleave
Размер файла                             : 1,37 Гбайт
Продолжительность                        : 1 ч. 28 м.
Общий поток                              : 2208 Кбит/сек
Программа кодирования                    : VirtualDubMod 1.5.10.3 | | (build 2550/release)
Библиотека кодирования                   : VirtualDubMod build 2550/release

Видео
Идентификатор                            : 0
Формат                                   : MPEG-4 Visual
Профиль формата                          : Advanced Simple@L5
Параметр BVOP формата                    : 2
Параметр QPel формата                    : Нет
Параметр GMC формата                     : Без точки перехода
Параметр матрицы формата                 : Default (MPEG)
Идентификатор кодека                     : XVID
Идентификатор кодека/Подсказка           : XviD
Продолжительность                        : 1 ч. 28 м.
Битрейт                                  : 1814 Кбит/сек
Ширина                                   : 720 пикселей
Высота                                   : 400 пикселей
Соотношение сторон                       : 16:9
Частота кадров                           : 23,976 (24000/1001) кадра/сек
Цветовое пространство                    : YUV
Субдискретизация насыщенности            : 4:2:0
Битовая глубина                          : 8 бит
Тип развёртки                            : Прогрессивная
Метод сжатия                             : С потерями
Бит/(Пиксели*Кадры)                      : 0.263
Размер потока                            : 1,12 Гбайт (82%)
Библиотека кодирования                   : XviD 1.2.1 (UTC 2008-12-04)

Аудио
Идентификатор                            : 1
Формат                                   : AC-3
Формат/Информация                        : Audio Coding 3
Расширение режима                        : CM (complete main)
Параметр Endianness формата              : Big
Идентификатор кодека                     : 2000
Продолжительность                        : 1 ч. 28 м.
Вид битрейта                             : Постоянный
Битрейт                                  : 384 Кбит/сек
Каналы                                   : 6 каналов
Расположение каналов                     : Front: L C R, Side: L R, LFE
Частота                                  : 48,0 КГц
Частота кадров                           : 31,250 кадров/сек (1536 spf)
Метод сжатия                             : С потерями
Размер потока                            : 243 Мбайт (17%)
Выравнивание                             : Разделение по промежуткам
Продолжительность промежутка             : 42  мс. (1,00 видеокадр)
Время предзагрузки промежутка            : 500  мс.
picpicpicpicpic
Для увеличения картинки щелкните мышкой по превью

Этот торрент недоступен для скачивания без регистрации, однако доступен по публичной magnet-ссылке (источники с публичных трекеров). Перед использованием ссылки прочтите, пожалуйста Пользовательское соглашение, а также как можно дольше оставайтесь на раздаче! Для того, чтобы скачать сам торрент-файл (который видит больше источников), а также для того, чтобы поблагодарить релизера, вам необходимо зарегистрироваться. Если регистрироваться лень - вы можете также попробовать скачать релиз по нашим партнерским ссылкам ниже.

[underverse.su].t62538.torrent
Трекер: Зарегистрирован   [ 31.01.2016 22:41 ]  

Статус: T временная (by makkol at 01.02.2016 23:16)
Поблагодарили: 1 человек
Тип торрента: публичный - доступные источники с открытых трекеров: 
Размер: 1,37 GB (занимает 0,31 DVDR, для записи нужно 1 болванка DVDR/RW)
 
 
Похожие темы
Форум Тема Автор Торрент Отв. Посл. сооб.
Зарубежное кино [DVDRip, Low-Res HDRip, и т.д.] Взлом / Home Invasion (Дэвид Теннант / David Tennant) [2016 г., триллер, WEB-DLRip] MVO (iTunes) 90ytr90
37 | 4

0 | 467

15

01.02.2016 20:35

T Зарубежное кино [DVDRip, Low-Res HDRip, и т.д.] Взлом / Home Invasion (Дэвид Теннант / David Tennant) [2016 г., триллер, WEB-DLRip-AVC] MVO (iTunes) 90ytr90
67 | 3

0 | 689

15

01.02.2016 20:39

T Зарубежное кино [HDDVDRip / BDRip / WEB-DL / HDTV 1080/720р] Взлом / Home Invasion (Дэвид Теннант) [2016 г., триллер, WEB-DL 1080p] MVO makkol
2 | 0

0 | 545

27

31.01.2016 22:48

T Зарубежное кино [HDDVDRip / BDRip / WEB-DL / HDTV 1080/720р] Взлом / Home Invasion (Дэвид Теннант) [2016 г., триллер, WEB-DL 720p] MVO makkol
30 | 0

0 | 982

45

31.01.2016 22:53


Яндекс.Метрика powered by Sphinx


В Н И М А Н И Е
Сайт не распространяет и не хранит электронные версии произведений, а лишь бесплатно и без коммерческой выгоды (не требуя взамен платы,
SMS и т.д.) предоставляет доступ к создаваемому пользователями каталогу ссылок на торрент-файлы, которые содержат только списки хеш-сумм.
Убедительная просьба с жалобами обращаться напрямую к пользователю, разместившему торрент файл.

Вверх