Loading...
Error

33 / The 33 (Патрисия Ригген) [2015 г., драма, биография, история, HDRip] MVO

Статистика раздачи
Размер:  2,05 GB   |    Зарегистрирован:  10 месяцев   |    Скачан:  6 раз

Полного источника не было: 4 месяца 21 день

Сидов:  0  |  0 KB/s  ]   Личеров:  0  |  0 KB/s  ]

* - сиды/пиры с внешних источников

   
 
Автор Сообщение

makkol Пол:Муж

30-Янв-2016 21:47

33 / The 33


Год выпуска: 2015
Жанр: драма, биография, история
Производство: США , Чили [Alcon Entertainment, Dynamo, FABULA, Half Circle, Phoenix Pictures]
Режиссер: Патрисия Ригген
В ролях: Антонио Бандерас, Родриго Санторо, Жюльет Бинош, Джеймс Бролин, Лу Даймонд Филлипс, Марио Касас, Джейкоб Варгас, Хуан Пабло Раба, Оскар Нунез, Теноч Уэрта
Сюжет фильма:
Фильм, основанный на реальных событиях, расскажет о тридцати трех чилийских шахтерах, которые в 2010 году на 69 дней оказались в ловушке под землей.

  • Мировая премьера: 2 августа 2015
  • Российская премьера: 28 января 2016


Качество видео: HDRip

Продолжительность: 02:07:10
Формат: AVI
Видео: XviD, 720x304 (2.35:1), 23.976 fps, 1915 kbps
Аудио: русский, профессиональный многоголосый закадровый (IDEAFILM), AC3 5.1, 48 kHz, 384 kbps

Код:

Общее
Формат : AVI
Формат/Информация : Audio Video Interleave
Профиль формата : OpenDML
Размер файла : 2,05 Гбайт
Продолжительность : 2 ч. 7 м.
Общий поток : 2311 Кбит/сек
Программа кодирования : VirtualDubMod 1.5.10.2 (build 2540/release)
Библиотека кодирования : VirtualDubMod build 2540/release

Видео
Идентификатор : 0
Формат : MPEG-4 Visual
Профиль формата : Advanced Simple@L5
Параметр BVOP формата : 2
Параметр QPel формата : Нет
Параметр GMC формата : Без точки перехода
Параметр матрицы формата : Default (MPEG)
Идентификатор кодека : XVID
Идентификатор кодека/Подсказка : XviD
Продолжительность : 2 ч. 7 м.
Битрейт : 1915 Кбит/сек
Ширина : 720 пикселей
Высота : 304 пикселя
Соотношение сторон : 2,35:1
Частота кадров : 23,976 кадра/сек
Цветовое пространство : YUV
Субдискретизация насыщенности : 4:2:0
Битовая глубина : 8 бит
Тип развёртки : Прогрессивная
Метод сжатия : С потерями
Бит/(Пиксели*Кадры) : 0.365
Размер потока : 1,70 Гбайт (83%)
Библиотека кодирования : XviD 1.2.1 (UTC 2008-12-04)

Аудио
Идентификатор : 1
Формат : AC-3
Формат/Информация : Audio Coding 3
Расширение режима : CM (complete main)
Параметр Endianness формата : Big
Идентификатор кодека : 2000
Продолжительность : 2 ч. 7 м.
Вид битрейта : Постоянный
Битрейт : 384 Кбит/сек
Каналы : 6 каналов
Расположение каналов : Front: L C R, Side: L R, LFE
Частота : 48,0 КГц
Битовая глубина : 16 бит
Метод сжатия : С потерями
Размер потока : 349 Мбайт (17%)
Выравнивание : Разделение по промежуткам
Продолжительность промежутка : 42 мс. (1,00 видеокадр)
Время предзагрузки промежутка : 500 мс.
picpicpicpicpic
Для увеличения картинки щелкните мышкой по превью

Этот торрент недоступен для скачивания без регистрации, однако доступен по публичной magnet-ссылке (источники с публичных трекеров). Перед использованием ссылки прочтите, пожалуйста Пользовательское соглашение, а также как можно дольше оставайтесь на раздаче! Для того, чтобы скачать сам торрент-файл (который видит больше источников), а также для того, чтобы поблагодарить релизера, вам необходимо зарегистрироваться. Если регистрироваться лень - вы можете также попробовать скачать релиз по нашим партнерским ссылкам ниже.

[underverse.su].t62466.torrent
Трекер: Зарегистрирован   [ 30.01.2016 21:47 ]  

Статус: проверено (by makkol at 30.01.2016 22:38)
Поблагодарили: 1 человек
Тип торрента: публичный - доступные источники с открытых трекеров: 
Размер: 2,05 GB (занимает 0,47 DVDR, для записи нужно 1 болванка DVDR/RW)
 
 
Похожие темы
Форум Тема Автор Торрент Отв. Посл. сооб.
Зарубежное кино [DVDRip, Low-Res HDRip, и т.д.] 33 / The 33 (Патрисия Ригген) [2015 г., драма, биография, история, WEB-DLRip] DVO makkol
62 | 8

0 | 432

26

23.11.2015 12:56

Зарубежное кино [DVDRip, Low-Res HDRip, и т.д.] 33 / The 33 (Патрисия Ригген / Patricia Riggen) [2015 г., драма, биография, история, HDRip] MVO (IdeaFilm) 90ytr90
28 | 2

0 | 618

22

31.01.2016 18:06

Зарубежное кино [DVDRip, Low-Res HDRip, и т.д.] 33 / The 33 (Патрисия Ригген) [2015 г., драма, биография, история, HDRip] Dub (SDI Media) makkol
295 | 12

0 | 277

7

17.08.2016 14:23

Зарубежное кино [HDDVDRip / BDRip / WEB-DL / HDTV 1080/720р] 33 / The 33 (Патрисия Ригген) [2015 г., драма, биография, история, WEB-DL 1080p] DVO + Original makkol
15 | 0

0 | 426

14

23.11.2015 13:08

Зарубежное кино [HDDVDRip / BDRip / WEB-DL / HDTV 1080/720р] 33 / The 33 (Патрисия Ригген) [2015 г., драма, биография, история, BDRip 1080p] MVO + Original makkol
3 | 0

0 | 356

7

30.01.2016 21:57

Зарубежное кино [HDDVDRip / BDRip / WEB-DL / HDTV 1080/720р] 33 / The 33 (Патрисия Ригген) [2015 г., драма, биография, история, BDRip 720p] MVO + Original makkol
4 | 3

0 | 336

4

30.01.2016 22:06

Зарубежное кино [HDDVDRip / BDRip / WEB-DL / HDTV 1080/720р] 33 / The 33 (Патрисия Ригген / Patricia Riggen) [2015 г., драма, биография, история, BDRip 720p] MVO (IdeaFilm) + Original (Eng) + Sub (Eng) 90ytr90
41 | 0

0 | 551

6

01.02.2016 20:07

Зарубежное кино [HDDVDRip / BDRip / WEB-DL / HDTV 1080/720р] 33 / The 33 (Патрисия Ригген) [2015 г., драма, биография, история, BDRip 720p] Dub (SDI Media) + Original makkol
47 | 1

0 | 246

6

17.08.2016 14:40


Яндекс.Метрика powered by Sphinx


В Н И М А Н И Е
Сайт не распространяет и не хранит электронные версии произведений, а лишь бесплатно и без коммерческой выгоды (не требуя взамен платы,
SMS и т.д.) предоставляет доступ к создаваемому пользователями каталогу ссылок на торрент-файлы, которые содержат только списки хеш-сумм.
Убедительная просьба с жалобами обращаться напрямую к пользователю, разместившему торрент файл.

Вверх