Loading...
Error

Порочная невинность / Playdate / Inocencia perversa (Эндрю С. Эрин) [2012 г., триллер, HDRip] VO + Original + Subs

Статистика раздачи
Размер:  1,5 GB   |    Зарегистрирован:  10 месяцев   |    Скачан:  6 раз

Полного источника не было: 1 месяц 3 дня

Сидов:  0  |  0 KB/s  ]   Личеров:  0  |  0 KB/s  ]

* - сиды/пиры с внешних источников

   
 
Автор Сообщение

makkol Пол:Муж

27-Янв-2016 23:19

Порочная невинность / Playdate / Inocencia perversa


Год выпуска: 2012
Жанр: триллер
Производство: США [Johnson Production Group]
Режиссер: Эндрю С. Эрин
В ролях: Маргерит Моро, Ричард Рукколо, Эбби Браммелл, Натали Элин Линд, Жюльен Дин Лакруа, Эйдан Поттер, Даррен Голдштейн, Дэрин Купер, Кэрри Армстронг
Сюжет фильма:
Эмили Валентайн вместе со своей семьей переезжает в новый дом, где знакомится с новыми соседями, с которыми быстро завязываются дружеские отношения. Чем больше она с ними сближается, тем явней становятся подозрения, что какая-то ужасная тайна скрыта в прошлом этой семьи. Она не верит даже в дружеские отношения своей дочери с соседским мальчиком, ей все кажется странным и страшным. Чем глубже она раскрывает прошлое семьи, тем больше оправдываются эти подозрения, но она не подозревает, что те в свою очередь сделают все, чтобы их тайна так и осталась тайной.

  • Мировая премьера: 28 апреля 2012


Качество видео: HDRip

Продолжительность: 01:21:41
Формат: AVI
Видео: XviD, 720x400 (16:9), 25.000 fps, 2006 kbps
Аудио #1: русский, любительский одноголосый закадровый (viktor_2838), AC3 2.0, 48 kHz, 224 kbps
Аудио #2: английский, оригинал, AC3 2.0, 48 kHz, 384 kbps
Субтитры: русские (Juris) внешние, SRT

Код:

Общее
Формат : AVI
Формат/Информация : Audio Video Interleave
Размер файла : 1,50 Гбайт
Продолжительность : 1 ч. 21 м.
Общий поток : 2628 Кбит/сек
Программа кодирования : VirtualDubModRus 1.5.10.2 (build 2542/release)
Библиотека кодирования : VirtualDubMod build 2542/release

Видео
Идентификатор : 0
Формат : MPEG-4 Visual
Профиль формата : Advanced Simple@L5
Параметр BVOP формата : 2
Параметр QPel формата : Нет
Параметр GMC формата : Без точки перехода
Параметр матрицы формата : Default (H.263)
Режим смешивания : Сжатый битовый поток
Идентификатор кодека : XVID
Идентификатор кодека/Подсказка : XviD
Продолжительность : 1 ч. 21 м.
Битрейт : 2007 Кбит/сек
Ширина : 720 пикселей
Высота : 400 пикселей
Соотношение сторон : 16:9
Частота кадров : 25,000 кадров/сек
Цветовое пространство : YUV
Субдискретизация насыщенности : 4:2:0
Битовая глубина : 8 бит
Тип развёртки : Прогрессивная
Метод сжатия : С потерями
Бит/(Пиксели*Кадры) : 0.279
Размер потока : 1,15 Гбайт (76%)
Библиотека кодирования : XviD 64

Аудио #1
Идентификатор : 1
Формат : AC-3
Формат/Информация : Audio Coding 3
Расширение режима : CM (complete main)
Параметр Endianness формата : Big
Идентификатор кодека : 2000
Продолжительность : 1 ч. 21 м.
Вид битрейта : Постоянный
Битрейт : 224 Кбит/сек
Каналы : 2 канала
Расположение каналов : Front: L R
Частота : 48,0 КГц
Битовая глубина : 16 бит
Метод сжатия : С потерями
Размер потока : 131 Мбайт (9%)
Выравнивание : Разделение по промежуткам
Продолжительность промежутка : 40 мс. (1,00 видеокадр)
Время предзагрузки промежутка : 500 мс.

Аудио #2
Идентификатор : 2
Формат : AC-3
Формат/Информация : Audio Coding 3
Расширение режима : CM (complete main)
Параметр Endianness формата : Big
Идентификатор кодека : 2000
Продолжительность : 1 ч. 21 м.
Вид битрейта : Постоянный
Битрейт : 384 Кбит/сек
Каналы : 2 канала
Расположение каналов : Front: L R
Частота : 48,0 КГц
Битовая глубина : 16 бит
Метод сжатия : С потерями
Размер потока : 224 Мбайт (15%)
Выравнивание : Соединение по промежуткам
Продолжительность промежутка : 40 мс. (1,00 видеокадр)
Время предзагрузки промежутка : 512 мс.
Релиз:

picpicpicpicpic
Для увеличения картинки щелкните мышкой по превью

Этот торрент недоступен для скачивания без регистрации, однако доступен по публичной magnet-ссылке (источники с публичных трекеров). Перед использованием ссылки прочтите, пожалуйста Пользовательское соглашение, а также как можно дольше оставайтесь на раздаче! Для того, чтобы скачать сам торрент-файл (который видит больше источников), а также для того, чтобы поблагодарить релизера, вам необходимо зарегистрироваться. Если регистрироваться лень - вы можете также попробовать скачать релиз по нашим партнерским ссылкам ниже.

[underverse.su].t62266.torrent
Трекер: Зарегистрирован   [ 27.01.2016 23:19 ]  

Статус: проверено (by makkol at 28.01.2016 23:33)
Поблагодарили: 1 человек
Тип торрента: публичный - доступные источники с открытых трекеров: 
Размер: 1,5 GB (занимает 0,34 DVDR, для записи нужно 1 болванка DVDR/RW)
 
 

Яндекс.Метрика powered by Sphinx


В Н И М А Н И Е
Сайт не распространяет и не хранит электронные версии произведений, а лишь бесплатно и без коммерческой выгоды (не требуя взамен платы,
SMS и т.д.) предоставляет доступ к создаваемому пользователями каталогу ссылок на торрент-файлы, которые содержат только списки хеш-сумм.
Убедительная просьба с жалобами обращаться напрямую к пользователю, разместившему торрент файл.

Вверх