Loading...
Error

На глубине [1-16 серии из 16] (Ярослав Мочалов) [2016 г., боевик, криминал, SATRip ]

Статистика раздачи
Размер:  9,54 GB   |    Зарегистрирован:  10 месяцев   |    Скачан:  58 раз

Полного источника не было: 3 часа

Сидов:  0  |  0 KB/s  ]   Личеров:  0  |  0 KB/s  ]

* - сиды/пиры с внешних источников

   
 
Автор Сообщение

nemos Пол:Муж

25-Янв-2016 18:03

На глубине


Год выпуска: 25 января 2016
Жанр: боевик, криминал
Страна: Россия
Режиссер: Ярослав Мочалов
В ролях: Алексей Гуськов, Дмитрий Ратомский, Полина Сидихина, Михаил Бабичев, Виктория Герасимова, Игорь Бочкин, Василий Бочкарёв, Олег Тактаров, Игорь Савочкин, Сергей Астахов, Юрий Сафаров, Михаил Вологдин, Олег Васильков, Сергей Быстрицкий, Михаил Полицеймако, Алексей Фатеев, Илья Исаев, Эдуард Османов, Олег Чевелёв, Лариса Домаскина, Сослан Фидаров, Алексей Ошурков, Иван Мамонов, Александр Аноприков и др.
Сюжет фильма:
Одна из специальных групп полицейских под прикрытием занимается поиском особо опасных преступников. Возглавляет группу харизматичный майор Жур. Характер у него строптивый, начальство его терпеть не может за прямоту и зачастую неординарные действия по обезвреживанию бандитов. К себе в команду майор взял троих: Селима, Дениса Крылова — и Алову, которую буквально «вытащил из-под земли» — раньше она работала в УВД при метрополитене. Ежедневно сотрудники отдела будут вставать перед выбором — правда и ложь, добро и зло. Часто героям фильма предстоит воевать не только с нарушителями закона, но и с самими собой… Кто выйдет победителем из этих противостояний, смотрите в новом сериале!


Качество видео: SATRip

Продолжительность: 00:44:46 серия
Формат: AVI
Видео: AVC, 720x400, 1 735 kbps
Аудио: русский, MP3, 2 канала, 128 kbps

Код:

F:\На глубине (2016)\01.avi
   General
      Complete name : F:\На глубине (2016)\01.avi
      Format : AVI
      Format/Info : Audio Video Interleave
      File size : 601 MiB
      Duration : 44mn 46s
      Overall bit rate mode : Variable
      Overall bit rate : 1 876 Kbps
      Writing application : Lavf54.63.104
   Video #0
      ID : 0
      Format : AVC
      Format/Info : Advanced Video Codec
      Format profile : Main@L3.0
      Format settings, CABAC : Yes
      Format settings, ReFrames : 1 frame
      Format settings, GOP : M=1, N=15
      Codec ID : H264
      Duration : 44mn 45s
      Bit rate mode : Variable
      Bit rate : 1 735 Kbps
      Maximum bit rate : 5 190 Kbps
      Width : 720 pixels
      Height : 400 pixels
      Display aspect ratio : 16:9
      Frame rate : 25.000 fps
      Color space : YUV
      Chroma subsampling : 4:2:0
      Bit depth : 8 bits
      Scan type : Progressive
      Bits/(Pixel*Frame) : 0.241
      Stream size : 556 MiB (92%)
   Audio #1
      ID : 1
      Format : MPEG Audio
      Format version : Version 1
      Format profile : Layer 3
      Mode : Joint stereo
      Codec ID : 55
      Codec ID/Hint : MP3
      Duration : 44mn 46s
      Bit rate mode : Constant
      Bit rate : 128 Kbps
      Channel(s) : 2 channels
      Sampling rate : 48.0 KHz
      Compression mode : Lossy
      Stream size : 41.0 MiB (7%)
      Alignment : Aligned on interleaves
      Interleave, duration : 24 ms (0.60 video frame)
picpicpicpicpicpicpicpic
Для увеличения картинки щелкните мышкой по превью

Этот торрент недоступен для скачивания без регистрации, однако доступен по публичной magnet-ссылке (источники с публичных трекеров). Перед использованием ссылки прочтите, пожалуйста Пользовательское соглашение, а также как можно дольше оставайтесь на раздаче! Для того, чтобы скачать сам торрент-файл (который видит больше источников), а также для того, чтобы поблагодарить релизера, вам необходимо зарегистрироваться. Если регистрироваться лень - вы можете также попробовать скачать релиз по нашим партнерским ссылкам ниже.

[underverse.su].t62692.torrent
Трекер: Зарегистрирован   [ 04.02.2016 16:38 ]  

Статус: проверено (by nemos at 05.02.2016 13:30)
Поблагодарили: 6 человек
Тип торрента: публичный - доступные источники с открытых трекеров: 
Размер: 9,54 GB (занимает 2,18 DVDR, для записи нужно 3 болванки DVDR/RW)
 
 


Последний раз редактировалось: nemos (05.02.2016 13:30), всего редактировалось 8 раз(а)

nemos Пол:Муж

26-Янв-2016 18:22

Раздача обновлена 16 серий.

Яндекс.Метрика powered by Sphinx


В Н И М А Н И Е
Сайт не распространяет и не хранит электронные версии произведений, а лишь бесплатно и без коммерческой выгоды (не требуя взамен платы,
SMS и т.д.) предоставляет доступ к создаваемому пользователями каталогу ссылок на торрент-файлы, которые содержат только списки хеш-сумм.
Убедительная просьба с жалобами обращаться напрямую к пользователю, разместившему торрент файл.

Вверх