Loading...
Error

АгитПроп (83 выпуска) [2014-2016 г., документальный, TVRip] не требуется

 
Автор Сообщение

ursusav 

25-Янв-2016 12:13

АгитПроп (83 выпуска) (Обновляемая!)


Год выпуска: 2014-2016
Жанр: документальный
Страна: Россия
Режиссер: Сёмин Константин Викторович
Сюжет фильма:
Аналитическая программа Константина Викторовича Сёмина, тележурналиста канала "Россия-24", автора ряда документальных фильмов, в том числе "Империя добра", "Мама-Америка" и "Биохимия предательства".
Качество видео: TVRip

Продолжительность: выпуск ~ 7 минут; общая (83 выпуска) - 10:51:13
Формат: AVI
Видео: MPEG-4 AVC, разное разрешение видео: 960*540 (выпуски от 2015.06.15, 2015.07.04 - 2015.08.08, 2015.09.12 - 2015.09.19, 2015.10.03 - 2015.10.10, 2015.10.31, 2015.12.12 - 2016.02.06, 2016.02.27 - 2016.03.12); 704*528 (выпуски от 2014.04.25 - 2014.08.02); 720*480 (выпуски от 2014.08.15 - 2014.10.04); 720*404 (выпуски от 2014.10.11 - 2015.06.13, 2015.06.20, 2015.09.05, 2015.09.26, 2015.10.17 - 2015.10.24, 2015.11.07 - 2015.11.28); 1280*720(выпуск от 2016.02.13 - 2016.02.21), 796-1203 kbps
Аудио: русский, AAC, 96 kbps

Код:

Общее
Полное имя : D:\Агитпроп v5\АгитПроп от 2015.06.15.mp4
Формат : MPEG-4
Идентификатор кодека : M4V (isom/avc1/mp42)
Размер файла : 53,7 Мбайт
Продолжительность : 8 м. 27 с.
Режим общего битрейта : Переменный
Общий поток : 887 Кбит/сек
Дата кодирования : UTC 2015-06-27 05:44:07
Дата пометки : UTC 2015-06-27 05:44:07

Видео
Идентификатор : 1
Формат : AVC
Формат/Информация : Advanced Video Codec
Профиль формата : Main@L3.1
Параметр CABAC формата : Да
Параметр ReFrames формата : 2 кадра
Идентификатор кодека : avc1
Идентификатор кодека/Информация : Advanced Video Coding
Продолжительность : 8 м. 27 с.
Вид битрейта : Переменный
Битрейт : 788 Кбит/сек
Максимальный битрейт : 1200 Кбит/сек
Ширина : 960 пикселей
Высота : 540 пикселей
Соотношение сторон : 16:9
Режим частоты кадров : Постоянный
Частота кадров : 25,000 кадров/сек
Цветовое пространство : YUV
Субдискретизация насыщенности : 4:2:0
Битовая глубина : 8 бит
Тип развёртки : Прогрессивная
Бит/(Пиксели*Кадры) : 0.061
Размер потока : 47,7 Мбайт (89%)
Дата кодирования : UTC 2015-06-27 05:44:07
Дата пометки : UTC 2015-06-27 05:44:07

Аудио
Идентификатор : 2
Формат : AAC
Формат/Информация : Advanced Audio Codec
Профиль формата : LC
Идентификатор кодека : 40
Продолжительность : 8 м. 27 с.
Вид битрейта : Переменный
Битрейт : 96,0 Кбит/сек
Максимальный битрейт : 104 Кбит/сек
Каналы : 2 канала
Расположение каналов : Front: L R
Частота : 48,0 КГц
Частота кадров : 46,875 кадров/сек (1024 spf)
Метод сжатия : С потерями
Размер потока : 5,65 Мбайт (11%)
Дата кодирования : UTC 2015-06-27 05:44:07
Дата пометки : UTC 2015-06-27 05:44:07
Семпл: http://rghost.ru/6fRlckpBV

picpicpic
Для увеличения картинки щелкните мышкой по превью


Последний раз редактировалось: ursusav (23.03.2016 19:39), всего редактировалось 6 раз(а)

Паукан Пол:Муж

25-Янв-2016 13:00

ursusav писал(а):

1280х720
а на скринах 640х352
где правильно?

ursusav 

25-Янв-2016 13:44

Разрешение видео части выпусков (к примеру, 2014.10.25 - 2015.07.11) 640х360. Некоторых других - 640х352 (2014.08.15 - 2014.10.04). Есть также видео разерешением 640х300 (2014.10.11). Допустимо ли в описании раздачи объединение выпусков с указанными разрешениями видео в группу 640х360, либо указать их раздельно?

ursusav 

26-Янв-2016 11:40

Паукан писал(а):

ursusav писал(а):

1280х720
где правильно?
Параметры видео выпусков различное, в описании указаны группы выпусков с одинаковым разрешением видео.
Содержание раздачи изменено: новые файлы с более высоким качеством, поправил информацию о раздаче. Предполагаю своевременное пополнение раздачи новыми выпусками.

Яндекс.Метрика powered by Sphinx


В Н И М А Н И Е
Сайт не распространяет и не хранит электронные версии произведений, а лишь бесплатно и без коммерческой выгоды (не требуя взамен платы,
SMS и т.д.) предоставляет доступ к создаваемому пользователями каталогу ссылок на торрент-файлы, которые содержат только списки хеш-сумм.
Убедительная просьба с жалобами обращаться напрямую к пользователю, разместившему торрент файл.

Вверх