Loading...
Error

Ралука / Raluca (Зденек Виктора) [2014 г., триллер, драма, криминал, эротика, DVDRip-AVC] VO

Статистика раздачи
Размер:  1,6 GB   |    Зарегистрирован:  10 месяцев   |    Скачан:  22 раза

Полного источника не было: 21 час

Сидов:  0  |  0 KB/s  ]   Личеров:  0  |  0 KB/s  ]

* - сиды/пиры с внешних источников

   
 
Автор Сообщение

makkol Пол:Муж

24-Янв-2016 23:13

Ралука / Raluca


Год выпуска: 2014
Жанр: триллер, драма, криминал, эротика
Производство: Чехия [Screenplay By]
Режиссер: Зденек Виктора
В ролях: Ян Доланский, Мальвина Пахлова, Давид Новотный, Гелена Дворжакова, Станислав Майер, Кристина Фрейова, Дана Сислова, Радим Шваб, Клара Седлачкова-Олтова, Петр Конаш, Зденек Виктора
Сюжет фильма:
Послужной список Филипа Маролда в полиции подпорчен, и теперь он перебивается частным сыском, выслеживая неверных мужей и жен. Во время очередного (на первый взгляд ординарного) дела, он встречает в баре красивую румынку. Слишком большой любитель женщин, чтобы даже задуматься над случайностью такой встречи, он очертя голову бросается в новую интрижку. Даже не подозревая при этом, куда она его заведет...

  • Мировая премьера: 11 декабря 2014


Качество видео: DVDRip-AVC

Продолжительность: 01:16:23
Формат: MKV
Видео: MPEG-4 AVC, 720x432@1028x432, 25.000 fps, 2100 kbps
Аудио: русский, любительский одноголосый закадровый (Kass), AC3 5.1, 48 kHz, 448 kbps

Код:

Unique ID : 193736706619082238230815861670000137128 (0x91C0551C210AA837807AB87228CF13A8)
Format : Matroska
Format version : Version 2
File size : 1.36 GiB
Duration : 1h 16mn
Overall bit rate : 2 551 Kbps
Encoded date : UTC
Writing application : HandBrake 0.10.2 2015060900
Writing library : Lavf55.12.0

Video
ID : 1
Format : AVC
Format/Info : Advanced Video Codec
Format profile : Main@L4
Format settings, CABAC : Yes
Format settings, ReFrames : 7 frames
Codec ID : V_MPEG4/ISO/AVC
Duration : 1h 16mn
Bit rate : 2 100 Kbps
Width : 720 pixels
Height : 432 pixels
Display aspect ratio : 2.40:1
Original display aspect ratio : 2.40:1
Frame rate mode : Constant
Frame rate : 25.000 fps
Color space : YUV
Chroma subsampling : 4:2:0
Bit depth : 8 bits
Scan type : Progressive
Bits/(Pixel*Frame) : 0.270
Stream size : 1.09 GiB (80%)
Writing library : x264 core 142 r2479 dd79a61
Encoding settings : cabac=1 / ref=7 / deblock=1:-1:-1 / analyse=0x1:0x111 / me=umh / subme=9 / psy=1 / psy_rd=1.00:0.15 / mixed_ref=0 / me_range=24 / chroma_me=1 / trellis=0 / 8x8dct=0 / cqm=0 / deadzone=21,11 / fast_pskip=1 / chroma_qp_offset=-2 / threads=12 / lookahead_threads=1 / sliced_threads=0 / nr=0 / decimate=1 / interlaced=0 / bluray_compat=0 / constrained_intra=0 / bframes=16 / b_pyramid=2 / b_adapt=1 / b_bias=0 / direct=1 / weightb=1 / open_gop=0 / weightp=1 / keyint=250 / keyint_min=25 / scenecut=40 / intra_refresh=0 / rc_lookahead=10 / rc=2pass / mbtree=1 / bitrate=2100 / ratetol=1.0 / qcomp=0.60 / qpmin=0 / qpmax=69 / qpstep=4 / cplxblur=20.0 / qblur=0.5 / vbv_maxrate=20000 / vbv_bufsize=25000 / nal_hrd=none / filler=0 / ip_ratio=1.40 / aq=1:1.00
Default : Yes
Forced : No
Color range : Limited
Color primaries : BT.601 PAL
Transfer characteristics : BT.709
Matrix coefficients : BT.601

Audio
ID : 2
Format : AC-3
Format/Info : Audio Coding 3
Mode extension : CM (complete main)
Format settings, Endianness : Big
Codec ID : A_AC3
Duration : 1h 16mn
Bit rate mode : Constant
Bit rate : 448 Kbps
Channel(s) : 6 channels
Channel positions : Front: L C R, Side: L R, LFE
Sampling rate : 48.0 KHz
Compression mode : Lossy
Stream size : 245 MiB (18%)
Title : Surround
Language : Russian
Default : Yes
Forced : No

Menu
00:00:00.000 : :Chapter 1
00:05:06.800 : :Chapter 2
00:09:44.240 : :Chapter 3
00:14:26.480 : :Chapter 4
00:19:59.600 : :Chapter 5
00:25:01.520 : :Chapter 6
00:29:43.280 : :Chapter 7
00:36:22.640 : :Chapter 8
00:42:11.120 : :Chapter 9
00:47:47.120 : :Chapter 10
00:58:12.080 : :Chapter 11
01:03:56.240 : :Chapter 12
01:12:37.520 : :Chapter 13
picpicpicpicpic
Для увеличения картинки щелкните мышкой по превью

Этот торрент недоступен для скачивания без регистрации, однако доступен по публичной magnet-ссылке (источники с публичных трекеров). Перед использованием ссылки прочтите, пожалуйста Пользовательское соглашение, а также как можно дольше оставайтесь на раздаче! Для того, чтобы скачать сам торрент-файл (который видит больше источников), а также для того, чтобы поблагодарить релизера, вам необходимо зарегистрироваться. Если регистрироваться лень - вы можете также попробовать скачать релиз по нашим партнерским ссылкам ниже.

[underverse.su].t62116.torrent
Трекер: Зарегистрирован   [ 24.01.2016 23:13 ]  

Статус: проверено (by makkol at 25.01.2016 22:59)
Поблагодарили: 1 человек
Тип торрента: публичный - доступные источники с открытых трекеров: 
Размер: 1,6 GB (занимает 0,37 DVDR, для записи нужно 1 болванка DVDR/RW)
 
 

Яндекс.Метрика powered by Sphinx


В Н И М А Н И Е
Сайт не распространяет и не хранит электронные версии произведений, а лишь бесплатно и без коммерческой выгоды (не требуя взамен платы,
SMS и т.д.) предоставляет доступ к создаваемому пользователями каталогу ссылок на торрент-файлы, которые содержат только списки хеш-сумм.
Убедительная просьба с жалобами обращаться напрямую к пользователю, разместившему торрент файл.

Вверх