Loading...
Error

Мученицы / Martyrs (Кевин Гетц, Майкл Гетц) [2015 г., ужасы, триллер, драма, HDRip] VO

Статистика раздачи
Размер:  1,43 GB   |    Зарегистрирован:  10 месяцев   |    Скачан:  23 раза
Сидов:  1  |  0 KB/s  ]   Личеров:  0  |  0 KB/s  ]

* - сиды/пиры с внешних источников

   
 
Автор Сообщение

makkol Пол:Муж

23-Янв-2016 10:48

Мученицы / Martyrs


Год выпуска: 2015
Жанр: ужасы, триллер, драма
Производство: США [Blumhouse Productions, Safran Company, The, Temple Hill Entertainmen]
Режиссер: Кевин Гетц, Майкл Гетц
В ролях: Тройэн Эвери Беллисарио, Кэйтлин Кармайкл, Кейт Бёртон, Бэйли Ноубл, Тоби Хасс, Лекси ДиБенедетто, Тейлор Джон Смит, Диана Хоппер, Блейк Роббинс, Питер Майкл Гец
Сюжет фильма:
Спустя год после своего исчезновения, десятилетняя Люси неожиданно находится. Девочка так напугана, что не может ни с кем разговаривать и рассказать, что же с ней произошло. Проходит 10 лет. Люси все еще продолжают посещать кошмары и она не оставляет попыток выяснить, что с ней тогда случилось. И когда она, наконец, вместе со своей подругой, приближается вплотную к разгадке тайны, то попадает в новую ловушку. Теперь, если им не удастся найти выход, им грозит страшная и мучительная смерть.

  • Мировая премьера: 9 октября 2015
  • Российская премьера: 4 февраля 2016


Качество видео: HDRip

Продолжительность: 01:26:25
Формат: AVI
Видео: XviD, 720x304 (2.35:1), 23.976 fps, 1919 kbps
Аудио: русский, любительский одноголосый закадровый (Хихикающий доктор), AC3 5.1, 48 kHz, 448 kbps

Код:

Format : AVI
Format/Info : Audio Video Interleave
File size : 1.43 GiB
Duration : 1h 26mn
Overall bit rate : 2 376 Kbps
Writing application : VirtualDubMod 1.5.10.3 | www.virtualdub-fr.org || (build 2550/release)
Writing library : VirtualDubMod build 2550/release

Video
ID : 0
Format : MPEG-4 Visual
Format profile : AdvancedSimple@L5
Format settings, BVOP : Yes
Format settings, QPel : No
Format settings, GMC : No warppoints
Format settings, Matrix : Custom
Codec ID : XVID
Codec ID/Hint : XviD
Duration : 1h 26mn
Bit rate : 1 919 Kbps
Width : 720 pixels
Height : 304 pixels
Display aspect ratio : 2.35:1
Frame rate : 23.976 fps
Resolution : 24 bits
Colorimetry : 4:2:0
Scan type : Progressive
Bits/(Pixel*Frame) : 0.366
Stream size : 1.16 GiB (81%)
Writing library : XviD 73

Audio
ID : 1
Format : AC-3
Format/Info : Audio Coding 3
Codec ID : 2000
Duration : 1h 26mn
Bit rate mode : Constant
Bit rate : 448 Kbps
Channel(s) : 6 channels
Channel positions : Front: L C R, Surround: L R, LFE
Sampling rate : 48.0 KHz
Stream size : 277 MiB (19%)
Alignment : Split accross interleaves
Interleave, duration : 42 ms (1.00 video frame)
Interleave, preload duration : 500 ms
picpicpicpicpic
Для увеличения картинки щелкните мышкой по превью

Этот торрент недоступен для скачивания без регистрации, однако доступен по публичной magnet-ссылке (источники с публичных трекеров). Перед использованием ссылки прочтите, пожалуйста Пользовательское соглашение, а также как можно дольше оставайтесь на раздаче! Для того, чтобы скачать сам торрент-файл (который видит больше источников), а также для того, чтобы поблагодарить релизера, вам необходимо зарегистрироваться. Если регистрироваться лень - вы можете также попробовать скачать релиз по нашим партнерским ссылкам ниже.

[underverse.su].t62025.torrent
Трекер: Зарегистрирован   [ 23.01.2016 10:49 ]  

Статус: проверено (by makkol at 23.01.2016 22:49)
Поблагодарили: пока никто не поблагодарил...
Тип торрента: публичный - доступные источники с открытых трекеров: 
Размер: 1,43 GB (занимает 0,33 DVDR, для записи нужно 1 болванка DVDR/RW)
 
 
Похожие темы
Форум Тема Автор Торрент Отв. Посл. сооб.
Зарубежное кино [DVDRip, Low-Res HDRip, и т.д.] Мученицы / Martyrs (Паскаль Легьер) [2008 г., Ужасы, мистика, шок, жесть, HD DVDRiр] Joey
0 | 0

0 | 1520

17

27.08.2010 09:35

Зарубежное кино [DVDRip, Low-Res HDRip, и т.д.] Мученицы / Martyrs (Кевин Гетц / Kevin Goetz, Майкл Гетц / Michael Goetz) [2015 г., ужасы, триллер, драма, HDRip] MVO (Paradox & Omskbird records) 90ytr90
4 | 0

0 | 533

10

26.01.2016 18:41

T Зарубежное кино [DVDRip, Low-Res HDRip, и т.д.] Мученицы / Martyrs (Кевин Гетц / Kevin Goetz, Майкл Гетц / Michael Goetz) [2015 г., ужасы, триллер, драма, HDRip] Dub (iTunes) 90ytr90
539 | 8

0 | 606

12

07.03.2016 20:48

T Зарубежное кино [DVDRip, Low-Res HDRip, и т.д.] Мученицы / Martyrs (Кевин Гетц / Kevin Goetz, Майкл Гетц / Michael Goetz) [2015 г., ужасы, триллер, драма, BDRip-AVC] Dub (iTunes) 90ytr90
0 | 0

0 | 521

10

08.03.2016 11:23

Зарубежное кино [HDDVDRip / BDRip / WEB-DL / HDTV 1080/720р] Мученицы / Martyrs (Кевин Гетц, Майкл Гетц) [2015 г., ужасы, триллер, драма, BDRip 1080p] VO + Original makkol
0 | 0

0 | 340

5

23.01.2016 10:59

Зарубежное кино [HDDVDRip / BDRip / WEB-DL / HDTV 1080/720р] Мученицы / Martyrs (Кевин Гетц, Майкл Гетц) [2015 г., ужасы, триллер, драма, BDRip 720p] VO + Original makkol
63 | 5

0 | 414

7

23.01.2016 11:09

Зарубежное кино [HDDVDRip / BDRip / WEB-DL / HDTV 1080/720р] Мученицы / Martyrs (Кевин Гетц / Kevin Goetz, Майкл Гетц / Michael Goetz) [2015 г., ужасы, триллер, драма, BDRip 720p] MVO (Paradox & Omskbird records) + Original (Eng) 90ytr90
18 | 0

0 | 547

8

26.01.2016 18:46

T Зарубежное кино [HDDVDRip / BDRip / WEB-DL / HDTV 1080/720р] Мученицы / Martyrs (Кевин Гетц / Kevin Goetz, Майкл Гетц / Michael Goetz) [2015 г., ужасы, триллер, драма, BDRip 720p] Dub (iTunes) + Original (Eng) 90ytr90
2 | 0

0 | 655

9

07.03.2016 20:53

* Архив Мученицы / Martyrs (Паскаль Легьер) [2008 г., Ужасы, мистика, шок, жесть, DVDRip (Rus+Eng)] [М@ЛЬВИН@]

7 | 1365

29.08.2010 23:52


Яндекс.Метрика powered by Sphinx


В Н И М А Н И Е
Сайт не распространяет и не хранит электронные версии произведений, а лишь бесплатно и без коммерческой выгоды (не требуя взамен платы,
SMS и т.д.) предоставляет доступ к создаваемому пользователями каталогу ссылок на торрент-файлы, которые содержат только списки хеш-сумм.
Убедительная просьба с жалобами обращаться напрямую к пользователю, разместившему торрент файл.

Вверх