Loading...
Error

Школьный проект / Perfect Sisters (Стэнли М. Брукс) [2014 г., драма, триллер, HDRip] DVO

Статистика раздачи
Размер:  1,37 GB   |    Зарегистрирован:  10 месяцев   |    Скачан:  2 раза

Полного источника не было: 8 месяцев

Сидов:  0  |  0 KB/s  ]   Личеров:  0  |  0 KB/s  ]

* - сиды/пиры с внешних источников

   
 
Автор Сообщение

makkol Пол:Муж

21-Янв-2016 13:31

Школьный проект / Perfect Sisters


Год выпуска: 2014
Жанр: драма, триллер
Производство: Канада [Julijette, Stan & Deliver Films]
Режиссер: Стэнли М. Брукс
В ролях: Эбигейл Бреслин, Джорджи Хенли, Мира Сорвино, Джеймс Руссо, Расти Швиммер, Зои Белкин, Джеффри Баллард, Джонатан Мэйлен, Стивен Джеймс, Зак Сантьяго
Сюжет фильма:
В центре повествования находятся две сестры из Канады, которые устали от алкоголизма матери и грязных намеков ее очередного ухажера. Девочки решили убить мать.

  • Мировая премьера: 8 апреля 2014


Качество видео: HDRip

Продолжительность: 01:36:40
Формат: AVI
Видео: XviD, 720x400 (16:9), 25.000 fps, 1823 kbps
Аудио: русский, любительский двухголосый закадровый, AC3 2.0, 48 kHz, 192 kbps

Код:

General
Format : AVI
Format/Info : Audio Video Interleave
File size : 1.37 GiB
Duration : 1h 36mn
Overall bit rate : 2 025 Kbps
Writing application : VirtualDubMod 1.5.10.3 | www.virtualdub-fr.org || (build 2550/release)
Writing library : VirtualDubMod build 2550/release
Video #0
ID : 0
Format : MPEG-4 Visual
Format profile : Advanced Simple@L5
Format settings, BVOP : 2
Format settings, QPel : No
Format settings, GMC : No warppoints
Format settings, Matrix : Default (H.263)
Codec ID : XVID
Codec ID/Hint : XviD
Duration : 1h 36mn
Bit rate : 1 823 Kbps
Width : 720 pixels
Height : 400 pixels
Display aspect ratio : 16:9
Frame rate : 25.000 fps
Color space : YUV
Chroma subsampling : 4:2:0
Bit depth : 8 bits
Scan type : Progressive
Compression mode : Lossy
Bits/(Pixel*Frame) : 0.253
Stream size : 1.23 GiB (90%)
Writing library : XviD 1.2.1 (UTC 2008-12-04)
Audio #1
ID : 1
Format : AC-3
Format/Info : Audio Coding 3
Mode extension : CM (complete main)
Format settings, Endianness : Big
Codec ID : 2000
Duration : 1h 36mn
Bit rate mode : Constant
Bit rate : 192 Kbps
Channel(s) : 2 channels
Channel positions : Front: L R
Sampling rate : 48.0 KHz
Bit depth : 16 bits
Compression mode : Lossy
Stream size : 133 MiB (9%)
Alignment : Split accross interleaves
Interleave, duration : 40 ms (1.00 video frame)
Interleave, preload duration : 500 ms
Перевод: kon2011
Озвучивание: 2D
Релиз группы:
picpicpicpicpic
Для увеличения картинки щелкните мышкой по превью

Этот торрент недоступен для скачивания без регистрации, однако доступен по публичной magnet-ссылке (источники с публичных трекеров). Перед использованием ссылки прочтите, пожалуйста Пользовательское соглашение, а также как можно дольше оставайтесь на раздаче! Для того, чтобы скачать сам торрент-файл (который видит больше источников), а также для того, чтобы поблагодарить релизера, вам необходимо зарегистрироваться. Если регистрироваться лень - вы можете также попробовать скачать релиз по нашим партнерским ссылкам ниже.

[underverse.su].t61931.torrent
Трекер: Зарегистрирован   [ 21.01.2016 13:31 ]  

Статус: проверено (by makkol at 22.01.2016 13:13)
Поблагодарили: пока никто не поблагодарил...
Тип торрента: публичный - доступные источники с открытых трекеров: 
Размер: 1,37 GB (занимает 0,31 DVDR, для записи нужно 1 болванка DVDR/RW)
 
 

Яндекс.Метрика powered by Sphinx


В Н И М А Н И Е
Сайт не распространяет и не хранит электронные версии произведений, а лишь бесплатно и без коммерческой выгоды (не требуя взамен платы,
SMS и т.д.) предоставляет доступ к создаваемому пользователями каталогу ссылок на торрент-файлы, которые содержат только списки хеш-сумм.
Убедительная просьба с жалобами обращаться напрямую к пользователю, разместившему торрент файл.

Вверх