Loading...
Error

Черная Месса / Black Mass (Скотт Купер) [2015 г., драма, криминал, биография, HDRip] Dub

Статистика раздачи
Размер:  2,06 GB   |    Зарегистрирован:  10 месяцев   |    Скачан:  16 раз

Полного источника не было: 24 дня

Сидов:  0  |  0 KB/s  ]   Личеров:  0  |  0 KB/s  ]

* - сиды/пиры с внешних источников

   
 
Автор Сообщение

makkol Пол:Муж

20-Янв-2016 11:14

Черная Месса / Black Mass


Год выпуска: 2015
Жанр: драма, криминал, биография
Производство: США [Cross Creek Pictures, Le Grisbi Productions, Infinitum Nihil]
Режиссер: Скотт Купер
В ролях: Джонни Депп, Джоэл Эдгертон, Бенедикт Камбербэтч, Кевин Бэйкон, Джесси Племонс, Питер Сарсгаард, Кори Столл, Дакота Джонсон, Рори Кокрейн, Дэвид Харбор, Адам Скотт, Джулианна Николсон, У. Эрл Браун, Билл Кэмп, Джуно Темпл, Марк Махони, Брэд Картер, Скотт Андерсон, Лонни Фармер, Мэри Клуг
Сюжет фильма:
Картина расскажет об Уайти Булджере, знаменитом бостонском гангстере, который 16 лет находился в бегах и был арестован в июне 2011 года в Санта-Монике. Булджер, которому уже за 80, обвинялся в рэкете, был замешан в 19 убийствах и в то же время работал информатором на ФБР. Чтобы не попасть за решетку, он исчез в 1995 году и 16 лет успешно скрывался от правосудия.

  • Мировая премьера: 4 сентября 2015
  • Российская премьера: 29 октября 2015


Качество видео: HDRip

Продолжительность: 02:02:32
Формат: AVI
Видео: XviD, 720x304 (2.35:1), 23.976 fps, 2011 kbps
Аудио: русский, дублированный (iTunes), AC3 5.1, 48 kHz, 384 kbps

Скачать дополнительно: форсированные русские субтитры

Код:

Общее
Формат                                   : AVI
Формат/Информация                        : Audio Video Interleave
Профиль формата                          : OpenDML
Размер файла                             : 2,06 Гбайт
Продолжительность                        : 2 ч. 2 м.
Общий поток                              : 2407 Кбит/сек
Программа кодирования                    : VirtualDubMod 1.5.10.2 (build 2540/release)
Формат оригинала/Имя                     : Movie

Видео
Идентификатор                            : 0
Формат                                   : MPEG-4 Visual
Профиль формата                          : Advanced Simple@L5
Параметр BVOP формата                    : 2
Параметр QPel формата                    : Нет
Параметр GMC формата                     : Без точки перехода
Параметр матрицы формата                 : Default (MPEG)
Идентификатор кодека                     : XVID
Идентификатор кодека/Подсказка           : XviD
Продолжительность                        : 2 ч. 2 м.
Битрейт                                  : 2011 Кбит/сек
Ширина                                   : 720 пикселей
Высота                                   : 304 пикселя
Соотношение сторон                       : 2,35:1
Частота кадров                           : 23,976 (24000/1001) кадра/сек
Цветовое пространство                    : YUV
Субдискретизация насыщенности            : 4:2:0
Битовая глубина                          : 8 бит
Тип развёртки                            : Прогрессивная
Метод сжатия                             : С потерями
Бит/(Пиксели*Кадры)                      : 0.383
Размер потока                            : 1,72 Гбайт (84%)
Библиотека кодирования                   : XviD 1.2.1 (UTC 2008-12-04)

Аудио
Идентификатор                            : 1
Формат                                   : AC-3
Формат/Информация                        : Audio Coding 3
Расширение режима                        : CM (complete main)
Параметр Endianness формата              : Big
Идентификатор кодека                     : 2000
Продолжительность                        : 2 ч. 2 м.
Вид битрейта                             : Постоянный
Битрейт                                  : 384 Кбит/сек
Каналы                                   : 6 каналов
Расположение каналов                     : Front: L C R, Side: L R, LFE
Частота                                  : 48,0 КГц
Частота кадров                           : 31,250 кадров/сек (1536 spf)
Метод сжатия                             : С потерями
Размер потока                            : 337 Мбайт (16%)
Выравнивание                             : Разделение по промежуткам
Продолжительность промежутка             : 42  мс. (1,00 видеокадр)
Время предзагрузки промежутка            : 500  мс.
picpicpicpicpic
Для увеличения картинки щелкните мышкой по превью

Этот торрент недоступен для скачивания без регистрации, однако доступен по публичной magnet-ссылке (источники с публичных трекеров). Перед использованием ссылки прочтите, пожалуйста Пользовательское соглашение, а также как можно дольше оставайтесь на раздаче! Для того, чтобы скачать сам торрент-файл (который видит больше источников), а также для того, чтобы поблагодарить релизера, вам необходимо зарегистрироваться. Если регистрироваться лень - вы можете также попробовать скачать релиз по нашим партнерским ссылкам ниже.

[underverse.su].t61869.torrent
Трекер: Зарегистрирован   [ 20.01.2016 11:14 ]  

Статус: T временная (by makkol at 20.01.2016 11:39)
Поблагодарили: 1 человек
Тип торрента: публичный - доступные источники с открытых трекеров: 
Размер: 2,06 GB (занимает 0,47 DVDR, для записи нужно 1 болванка DVDR/RW)
 
 
Похожие темы
Форум Тема Автор Торрент Отв. Посл. сооб.
T Зарубежное кино [DVDRip, Low-Res HDRip, и т.д.] Черная месса / Black Mass (Скотт Купер / Scott Cooper) [2015 г., драма, криминал, биография, BDRip-AVC] Dub (iTunes) + Subs 90ytr90
112 | 0

0 | 427

22

20.01.2016 16:58

Зарубежное кино [DVDRip, Low-Res HDRip, и т.д.] Черная месса / Black Mass (Скотт Купер / Scott Cooper) [2015 г., драма, криминал, биография, HDRip] Dub + hardsub (Rus) 90ytr90
405 | 9

0 | 483

7

25.02.2016 19:41

Зарубежное кино [DVDRip, Low-Res HDRip, и т.д.] Черная месса / Black Mass (Скотт Купер / Scott Cooper) [2015 г., драма, криминал, биография, BDRip 1080p] Dub + AVO (Яроцкий, без цензуры) + Original (Eng) + Subs 90ytr90
5 | 0

0 | 467

1

25.02.2016 20:05

Зарубежное кино [DVDRip, Low-Res HDRip, и т.д.] Черная месса / Black Mass (Скотт Купер / Scott Cooper) [2015 г., драма, криминал, биография, BDRip-AVC] Dub + Ukr + Original (Eng) + Sub (Rus, Eng) 90ytr90
41 | 1

0 | 557

3

25.02.2016 20:27

* Зарубежное кино [DVDRip, Low-Res HDRip, и т.д.] Черная месса / Black Mass (Скотт Купер / Scott Cooper) [2015 г., драма, криминал, биография, BDRip] Dub + Ukr + Original (Eng) + Sub (Rus, Eng) 90ytr90
23 | 1

0 | 636

9

26.02.2016 19:50

T Зарубежное кино [HDDVDRip / BDRip / WEB-DL / HDTV 1080/720р] Черная Месса / Black Mass (Скотт Купер) [2015 г., драма, криминал, биография, BDRip 1080p] Dub (Rus) + AVO (Яроцкий) + Dub (Ukr) + Original + Subs makkol
1 | 0

0 | 402

17

20.01.2016 11:30

Зарубежное кино [HDDVDRip / BDRip / WEB-DL / HDTV 1080/720р] Черная месса / Black Mass (Скотт Купер / Scott Cooper) [2015 г., драма, криминал, биография, BDRip 720p] Dub + Original (Eng) + Sub (Rus, Eng) 90ytr90
30 | 2

0 | 520

9

25.02.2016 20:11

Зарубежное кино [HDDVDRip / BDRip / WEB-DL / HDTV 1080/720р] Черная месса / Black Mass (Скотт Купер / Scott Cooper) [2015 г., драма, криминал, биография, BDRip 1080p] Dub + Ukr + Original (Eng) + Sub (Rus, Eng) 90ytr90
33 | 1

0 | 555

6

25.02.2016 20:32

Наше кино [HDDVDRip / BDRip / WEB-DL / HDTV 1080/720р] Черная месса / Black Mass (Скотт Купер / Scott Cooper) [2015 г., драма, криминал, биография, BDRip 720p] Dub + AVO (Яроцкий, без цензуры) + Original (Eng) + Subs 90ytr90
20 | 1

0 | 516

5

25.02.2016 20:00


Яндекс.Метрика powered by Sphinx


В Н И М А Н И Е
Сайт не распространяет и не хранит электронные версии произведений, а лишь бесплатно и без коммерческой выгоды (не требуя взамен платы,
SMS и т.д.) предоставляет доступ к создаваемому пользователями каталогу ссылок на торрент-файлы, которые содержат только списки хеш-сумм.
Убедительная просьба с жалобами обращаться напрямую к пользователю, разместившему торрент файл.

Вверх