Loading...
Error

Приговорённые 2: Охота в пустыне / The Condemned 2 (Роэль Рейн) [2015 г., боевик, HDRip] Dub

Статистика раздачи
Размер:  1,37 GB   |    Зарегистрирован:  10 месяцев   |    Скачан:  21 раз

Полного источника не было: 10 часов

Сидов:  0  |  0 KB/s  ]   Личеров:  0  |  0 KB/s  ]

* - сиды/пиры с внешних источников

   
 
Автор Сообщение

makkol Пол:Муж

19-Янв-2016 22:40

Приговорённые 2: Охота в пустыне / The Condemned 2


Год выпуска: 2015
Жанр: боевик
Производство: США [WWE Studios]
Режиссер: Роэль Рейн
В ролях: Рэнди Ортон, Эрик Робертс, Уэс Стьюди, Стивен Майкл Квезада, Алекс Найт, Дилан Кенин, Моник Канделария, Майкл Шитс, Мартин Палмер, Стэффорд Дуглас, Марк Сивертсен
Сюжет фильма:
Уилл Таннер из тех, кто выбрал для себя «профессию» охотников за головами. Однажды он попадает в серьезные неприятности, задержан полицией и получает приговор. Его и бывшую его команду вовлекают в игру на выживание под объективами камер в угоду интересам благополучной публики. Ставки сделаны, приговоренные должны проявить в жестких обстоятельствах максимум своих способностей сражаться и избегать ловушек, выносливость и изобретательность. Песчаный ад может дать шанс жить дальше…

  • Мировая премьера: 6 ноября 2015


Качество видео: HDRip

Продолжительность: 01:30:14
Формат: AVI
Видео: XviD, 720x400 (16:9), 23.976 fps, 1783 kbps
Аудио: русский, дублированный (iTunes), AC3 5.1, 48 kHz, 384 kbps

Код:

Общее
Формат                                   : AVI
Формат/Информация                        : Audio Video Interleave
Профиль формата                          : OpenDML
Настройки формата                        : rec
Размер файла                             : 1,37 Гбайт
Продолжительность                        : 1 ч. 30 м.
Общий поток                              : 2172 Кбит/сек
Программа кодирования                    : AVI-Mux GUI 1.17.8.3, Feb 16 201019:42:50

Видео
Идентификатор                            : 0
Формат                                   : MPEG-4 Visual
Профиль формата                          : Advanced Simple@L5
Параметр BVOP формата                    : 2
Параметр QPel формата                    : Нет
Параметр GMC формата                     : Без точки перехода
Параметр матрицы формата                 : Default (MPEG)
Идентификатор кодека                     : XVID
Идентификатор кодека/Подсказка           : XviD
Продолжительность                        : 1 ч. 30 м.
Битрейт                                  : 1783 Кбит/сек
Ширина                                   : 720 пикселей
Высота                                   : 400 пикселей
Соотношение сторон                       : 16:9
Частота кадров                           : 23,976 (24000/1001) кадра/сек
Цветовое пространство                    : YUV
Субдискретизация насыщенности            : 4:2:0
Битовая глубина                          : 8 бит
Тип развёртки                            : Прогрессивная
Метод сжатия                             : С потерями
Бит/(Пиксели*Кадры)                      : 0.258
Размер потока                            : 1,12 Гбайт (82%)
Библиотека кодирования                   : XviD 1.2.1 (UTC 2008-12-04)

Аудио
Идентификатор                            : 1
Формат                                   : AC-3
Формат/Информация                        : Audio Coding 3
Расширение режима                        : CM (complete main)
Параметр Endianness формата              : Big
Идентификатор кодека                     : 2000
Продолжительность                        : 1 ч. 30 м.
Вид битрейта                             : Постоянный
Битрейт                                  : 384 Кбит/сек
Каналы                                   : 6 каналов
Расположение каналов                     : Front: L C R, Side: L R, LFE
Частота                                  : 48,0 КГц
Частота кадров                           : 31,250 кадров/сек (1536 spf)
Метод сжатия                             : С потерями
Размер потока                            : 248 Мбайт (18%)
Выравнивание                             : Соединение по промежуткам
Продолжительность промежутка             : 64  мс. (1,53 видеокадра)
Время предзагрузки промежутка            : 192  мс.
picpicpicpicpic
Для увеличения картинки щелкните мышкой по превью

Этот торрент недоступен для скачивания без регистрации, однако доступен по публичной magnet-ссылке (источники с публичных трекеров). Перед использованием ссылки прочтите, пожалуйста Пользовательское соглашение, а также как можно дольше оставайтесь на раздаче! Для того, чтобы скачать сам торрент-файл (который видит больше источников), а также для того, чтобы поблагодарить релизера, вам необходимо зарегистрироваться. Если регистрироваться лень - вы можете также попробовать скачать релиз по нашим партнерским ссылкам ниже.

[underverse.su].t61858.torrent
Трекер: Зарегистрирован   [ 19.01.2016 22:40 ]  

Статус: T временная (by makkol at 20.01.2016 11:35)
Поблагодарили: пока никто не поблагодарил...
Тип торрента: публичный - доступные источники с открытых трекеров: 
Размер: 1,37 GB (занимает 0,31 DVDR, для записи нужно 1 болванка DVDR/RW)
 
 
Похожие темы
Форум Тема Автор Торрент Отв. Посл. сооб.
T Зарубежное кино [DVDRip, Low-Res HDRip, и т.д.] Приговорённые 2: Охота в пустыне / The Condemned 2 (Роэль Рейн / Roel Reine) [2015 г., боевик, триллер, BDRip-AVC] Dub (iTunes) + Original (Eng) + Sub (Eng) 90ytr90
5 | 0

0 | 327

11

20.01.2016 17:40

T Зарубежное кино [HDDVDRip / BDRip / WEB-DL / HDTV 1080/720р] Приговорённые 2: Охота в пустыне / The Condemned 2 (Роэль Рейн) [2015 г., боевик, BDRip 1080p] Dub + Original makkol
0 | 0

0 | 432

7

19.01.2016 22:47

T Зарубежное кино [HDDVDRip / BDRip / WEB-DL / HDTV 1080/720р] Приговорённые 2: Охота в пустыне / The Condemned 2 (Роэль Рейн / Roel Reine) [2015 г., боевик, триллер, BDRip 720p] Dub (iTunes) + Original (Eng) + Sub (Eng) 90ytr90
28 | 0

0 | 317

4

20.01.2016 17:59


Яндекс.Метрика powered by Sphinx


В Н И М А Н И Е
Сайт не распространяет и не хранит электронные версии произведений, а лишь бесплатно и без коммерческой выгоды (не требуя взамен платы,
SMS и т.д.) предоставляет доступ к создаваемому пользователями каталогу ссылок на торрент-файлы, которые содержат только списки хеш-сумм.
Убедительная просьба с жалобами обращаться напрямую к пользователю, разместившему торрент файл.

Вверх