Loading...
Error

Дневник девочки-подростка / The Diary of a Teenage Girl (Мариэль Хеллер) [2015 г., драма, мелодрама, HDRip] MVO

Статистика раздачи
Размер:  1,46 GB   |    Зарегистрирован:  10 месяцев   |    Скачан:  24 раза

Полного источника не было: 2 часа 49 минут

Сидов:  0  |  0 KB/s  ]   Личеров:  0  |  0 KB/s  ]

* - сиды/пиры с внешних источников

   
 
Автор Сообщение

makkol Пол:Муж

17-Янв-2016 22:23

Дневник девочки-подростка / The Diary of a Teenage Girl


Год выпуска: 2015
Жанр: драма, мелодрама
Производство: США [Archer Gray Productions, Caviar, Caviar Films, Cold Iron Pictures]
Режиссер: Мариэль Хеллер
В ролях: Бел Паули, Кристен Уиг, Эбби Уэйт, Александр Скарсгард, Миранда Бэйли, Карсон Д. Мелл, Джон Парсонс, Остин Лион
Сюжет фильма:
История девочки-подростка, живущей в Сан-Франциско в 70-е годы, которая завела интрижку с бойфрендом своей мамы...

  • Мировая премьера: 24 января 2015


Качество видео: HDRip

Продолжительность: 01:42:08
Формат: AVI
Видео: XviD, 720x304 (2.35:1), 23.976 fps, 1654 kbps
Аудио: русский, профессиональный многоголосый закадровый (iTunes), AC3 5.1, 48 kHz, 384 kbps

Код:

Общее
Формат                                   : AVI
Формат/Информация                        : Audio Video Interleave
Размер файла                             : 1,46 Гбайт
Продолжительность                        : 1 ч. 42 м.
Общий поток                              : 2047 Кбит/сек
Программа кодирования                    : VirtualDubMod 1.5.10.3 | www.virtualdub-fr.org || (build 2550/release)
Библиотека кодирования                   : VirtualDubMod build 2550/release

Видео
Идентификатор                            : 0
Формат                                   : MPEG-4 Visual
Профиль формата                          : Advanced Simple@L5
Параметр BVOP формата                    : 2
Параметр QPel формата                    : Нет
Параметр GMC формата                     : Без точки перехода
Параметр матрицы формата                 : Default (MPEG)
Идентификатор кодека                     : XVID
Идентификатор кодека/Подсказка           : XviD
Продолжительность                        : 1 ч. 42 м.
Битрейт                                  : 1654 Кбит/сек
Ширина                                   : 720 пикселей
Высота                                   : 304 пикселя
Соотношение сторон                       : 2,35:1
Частота кадров                           : 23,976 (24000/1001) кадра/сек
Цветовое пространство                    : YUV
Субдискретизация насыщенности            : 4:2:0
Битовая глубина                          : 8 бит
Тип развёртки                            : Прогрессивная
Метод сжатия                             : С потерями
Бит/(Пиксели*Кадры)                      : 0.315
Размер потока                            : 1,18 Гбайт (81%)
Библиотека кодирования                   : XviD 1.2.1 (UTC 2008-12-04)

Аудио
Идентификатор                            : 1
Формат                                   : AC-3
Формат/Информация                        : Audio Coding 3
Расширение режима                        : CM (complete main)
Параметр Endianness формата              : Big
Идентификатор кодека                     : 2000
Продолжительность                        : 1 ч. 42 м.
Вид битрейта                             : Постоянный
Битрейт                                  : 384 Кбит/сек
Каналы                                   : 6 каналов
Расположение каналов                     : Front: L C R, Side: L R, LFE
Частота                                  : 48,0 КГц
Частота кадров                           : 31,250 кадров/сек (1536 spf)
Метод сжатия                             : С потерями
Задержка видео                           : 955 мс.
Размер потока                            : 281 Мбайт (19%)
Выравнивание                             : Разделение по промежуткам
Продолжительность промежутка             : 42  мс. (1,00 видеокадр)
Время предзагрузки промежутка            : 500  мс.
picpicpicpicpic
Для увеличения картинки щелкните мышкой по превью

Этот торрент недоступен для скачивания без регистрации, однако доступен по публичной magnet-ссылке (источники с публичных трекеров). Перед использованием ссылки прочтите, пожалуйста Пользовательское соглашение, а также как можно дольше оставайтесь на раздаче! Для того, чтобы скачать сам торрент-файл (который видит больше источников), а также для того, чтобы поблагодарить релизера, вам необходимо зарегистрироваться. Если регистрироваться лень - вы можете также попробовать скачать релиз по нашим партнерским ссылкам ниже.

[underverse.su].t61818.torrent
Трекер: Зарегистрирован   [ 17.01.2016 22:23 ]  

Статус: T временная (by makkol at 18.01.2016 23:06)
Поблагодарили: пока никто не поблагодарил...
Тип торрента: публичный - доступные источники с открытых трекеров: 
Размер: 1,46 GB (занимает 0,33 DVDR, для записи нужно 1 болванка DVDR/RW)
 
 
Похожие темы
Форум Тема Автор Торрент Отв. Посл. сооб.
# Зарубежное кино [DVDRip, Low-Res HDRip, и т.д.] Дневник девочки-подростка / The Diary of a Teenage Girl (Мариэль Хеллер) [2015 г., драма, мелодрама, HDRip] DVO makkol
0 | 0

1 | 348

14

12.01.2016 18:57

T Зарубежное кино [DVDRip, Low-Res HDRip, и т.д.] Дневник девочки-подростка / The Diary of a Teenage Girl (Мариэль Хеллер / Marielle Heller) [2015 г., драма, мелодрама, BDRip-AVC] MVO (iTunes) + Sub (Eng) 90ytr90
1 | 0

0 | 323

8

21.01.2016 19:51

Зарубежное кино [HDDVDRip / BDRip / WEB-DL / HDTV 1080/720р] Дневник девочки-подростка / The Diary of a Teenage Girl (Мариэль Хеллер) [2015 г., драма, мелодрама, BDRip 1080p] DVO + Original makkol
5 | 0

0 | 357

4

12.01.2016 14:11

T Зарубежное кино [HDDVDRip / BDRip / WEB-DL / HDTV 1080/720р] Дневник девочки-подростка / The Diary of a Teenage Girl (Мариэль Хеллер) [2015 г., драма, мелодрама, BDRip 1080p] MVO + Original makkol
5 | 0

0 | 396

6

17.01.2016 22:32

T Зарубежное кино [HDDVDRip / BDRip / WEB-DL / HDTV 1080/720р] Дневник девочки-подростка / The Diary of a Teenage Girl (Мариэль Хеллер / Marielle Heller) [2015 г., драма, мелодрама, BDRip 720p] MVO (iTunes) + Original (Eng) + Sub (Eng) 90ytr90
2 | 0

0 | 349

5

21.01.2016 20:02


Яндекс.Метрика powered by Sphinx


В Н И М А Н И Е
Сайт не распространяет и не хранит электронные версии произведений, а лишь бесплатно и без коммерческой выгоды (не требуя взамен платы,
SMS и т.д.) предоставляет доступ к создаваемому пользователями каталогу ссылок на торрент-файлы, которые содержат только списки хеш-сумм.
Убедительная просьба с жалобами обращаться напрямую к пользователю, разместившему торрент файл.

Вверх