Loading...
Error

Детям до 16-ти / Skipped Parts (Тамра Дэвис) [2000 г., драма, мелодрама, комедия, DVDRip-AVC] DVO + Original + Subs

Статистика раздачи
Размер:  1,73 GB   |    Зарегистрирован:  10 месяцев   |    Скачан:  8 раз

Полного источника не было: 3 месяца 19 дней

Сидов:  0  |  0 KB/s  ]   Личеров:  0  |  0 KB/s  ]

* - сиды/пиры с внешних источников

   
 
Автор Сообщение

makkol Пол:Муж

16-Янв-2016 14:09

Детям до 16-ти / Skipped Parts


Год выпуска: 2000
Жанр: драма, мелодрама, комедия
Производство: США [Skipped Parts Productions]
Режиссер: Тамра Дэвис
В ролях: Дрю Бэрримор, Дженнифер Джейсон Ли, Миша Бартон, Баг Холл, Брэд Ренфро, Джералд Лентон-Янг, Пегги Липтон, Андреа Менар, Майкл Грейес, Кэтрин Генри, Элизабет Генри, Дэниэл Маслани, Аарон Фалман, Иван МакДональд, Рик Раванелло, Анджела Фезерстоун, Элисон Пилл, Джордж Грассик, Карен Стаден
Сюжет фильма:
Четырнадцатилетний Сэм Каллахан подошел к тому периоду жизни, когда в подростках просыпается обостренный интерес к противоположному полу. А поскольку Сэм собирается стать писателем, ему необходим богатый личный опыт, чтобы не сфальшивить в будущих произведениях. Сэм решает обратиться за помощью сначала к матери, потом к своей однокласснице Мори… Так начинается его путь к неожиданным открытиям…

Экранизация одноименной книги Тима Сэндлина.

  • Мировая премьера: 6 июня 2000


Качество видео: DVDRip-AVC

Продолжительность: 01:35:41
Формат: MKV
Видео: MPEG-4 AVC, 720x576@1018x576 (16:9), 25.000 fps, 1771 kbps
Аудио #1: русский, профессиональный двухголосый закадровый, AC3 5.1, 48 kHz, 384 kbps
Аудио #2: английский, оригинал, AC3 5.1, 48 kHz, 384 kbps
Субтитры: русские, английские вшитые отключаемые

Код:

General
Format : Matroska
File size : 1.73 GiB
Duration : 1h 35mn
Overall bit rate : 2 590 Kbps
Encoded date : UTC 2010-02-20 21:11:50
Writing application : mkvmerge v2.9.8 ('C'est le bon') built on Nov 20 2009 13:01:15
Writing library : libebml v0.7.9 + libmatroska v0.8.1

Video
ID : 1
Format : AVC
Format/Info : Advanced Video Codec
Format profile : High@L3.0
Format settings, CABAC : Yes
Format settings, ReFrames : 5 frames
Muxing mode : Container profile=Unknown@3.0
Codec ID : V_MPEG4/ISO/AVC
Duration : 1h 35mn
Bit rate : 1 771 Kbps
Width : 720 pixels
Height : 576 pixels
Display aspect ratio : 16:9
Frame rate : 25.000 fps
Standard : PAL
Resolution : 8 bits
Colorimetry : 4:2:0
Scan type : Progressive
Bits/(Pixel*Frame) : 0.171
Stream size : 1.18 GiB (68%)
Title : DVDRip-AVC
Writing library : x264 core 79 r1342kMod e8501ef
Encoding settings : cabac=1 / ref=5 / deblock=1:-1:-1 / analyse=0x3:0x133 / me=umh / subme=7 / psy=1 / psy_rd=1.0:0.0 / mixed_ref=1 / me_range=16 / chroma_me=1 / trellis=2 / 8x8dct=1 / cqm=0 / deadzone=21,11 / chroma_qp_offset=-2 / threads=3 / nr=0 / decimate=1 / mbaff=0 / constrained_intra=0 / bframes=3 / b_pyramid=0 / b_adapt=2 / b_bias=0 / direct=3 / wpredb=1 / wpredp=2 / keyint=250 / keyint_min=25 / scenecut=40 / rc_lookahead=50 / rc=crf / mbtree=1 / crf=18.0000 / qcomp=0.60 / qpmin=10 / qpmax=51 / qpstep=4 / ip_ratio=1.40 / aq=1:1.00
Language : English

Audio #1
ID : 2
Format : AC-3
Format/Info : Audio Coding 3
Codec ID : A_AC3
Duration : 1h 35mn
Bit rate mode : Constant
Bit rate : 384 Kbps
Channel(s) : 6 channels
Channel positions : Front: L C R, Surround: L R, LFE
Sampling rate : 48.0 KHz
Stream size : 263 MiB (15%)
Title : MVO (AC3 5.1 @ 384 kbps)
Language : Russian

Audio #2
ID : 3
Format : AC-3
Format/Info : Audio Coding 3
Codec ID : A_AC3
Duration : 1h 35mn
Bit rate mode : Constant
Bit rate : 384 Kbps
Channel(s) : 6 channels
Channel positions : Front: L C R, Surround: L R, LFE
Sampling rate : 48.0 KHz
Stream size : 263 MiB (15%)
Title : Original (AC3 5.1 @ 384 kbps)
Language : English

Text #1
ID : 4
Format : UTF-8
Codec ID : S_TEXT/UTF8
Codec ID/Info : UTF-8 Plain Text
Title : RUS Subtitles
Language : Russian

Text #2
ID : 5
Format : UTF-8
Codec ID : S_TEXT/UTF8
Codec ID/Info : UTF-8 Plain Text
Title : ENG Subtitles
Language : English
picpicpicpicpic
Для увеличения картинки щелкните мышкой по превью

Этот торрент недоступен для скачивания без регистрации, однако доступен по публичной magnet-ссылке (источники с публичных трекеров). Перед использованием ссылки прочтите, пожалуйста Пользовательское соглашение, а также как можно дольше оставайтесь на раздаче! Для того, чтобы скачать сам торрент-файл (который видит больше источников), а также для того, чтобы поблагодарить релизера, вам необходимо зарегистрироваться. Если регистрироваться лень - вы можете также попробовать скачать релиз по нашим партнерским ссылкам ниже.

[underverse.su].t61796.torrent
Трекер: Зарегистрирован   [ 16.01.2016 14:09 ]  

Статус: проверено (by makkol at 16.01.2016 23:21)
Поблагодарили: пока никто не поблагодарил...
Тип торрента: публичный - доступные источники с открытых трекеров: 
Размер: 1,73 GB (занимает 0,4 DVDR, для записи нужно 1 болванка DVDR/RW)
 
 
Похожие темы
Форум Тема Автор Торрент Отв. Посл. сооб.
Наше кино [DVDRip, Low-Res HDRip, и т.д.] Детям до 16... / To children to 16... (Андрей Кавун) [2010 г., мелодрама, ..., DVDRip] oartemka178
6 | 0

1 | 1261

29

04.10.2010 11:48

* Архив Детям до 16-ти / Skipped Parts (Тамара Дэвис) [2000 г., Комедия, мелодрама, драма, DVDRip] StormX

1 | 695

29.08.2010 23:52


Яндекс.Метрика powered by Sphinx


В Н И М А Н И Е
Сайт не распространяет и не хранит электронные версии произведений, а лишь бесплатно и без коммерческой выгоды (не требуя взамен платы,
SMS и т.д.) предоставляет доступ к создаваемому пользователями каталогу ссылок на торрент-файлы, которые содержат только списки хеш-сумм.
Убедительная просьба с жалобами обращаться напрямую к пользователю, разместившему торрент файл.

Вверх