Loading...
Error

Химик / The Chemist (Арт Камачо) [2015 г., боевик, WEB-DLRip] MVO [Официальный звук]

Статистика раздачи
Размер:  1,46 GB   |    Зарегистрирован:  10 месяцев   |    Скачан:  27 раз

Полного источника не было: 4 часа

Сидов:  0  |  0 KB/s  ]   Личеров:  0  |  0 KB/s  ]

* - сиды/пиры с внешних источников

   
 
Автор Сообщение

Су-34 Пол:Муж

15-Янв-2016 16:09

Химик / The Chemist


Год выпуска: 2015
Жанр: боевик
Страна: США
Режиссер: Арт Камачо
В ролях: Саша Митчелл, Ричард Греко, Мартин Коув, Пэтрик Килпэтрик, Роберт Миано, Оливье Грюнер, Маршал Хилтон, Нина Бергман, Эшли Этвуд, Стефани Герард
Сюжет фильма:
Стил — немолодой убийца, который подводит своего работодателя, когда отказывается убить только что встреченную им женщину. Убегая, Стил становится следующей жертвой дуэли между наёмниками — до тех пор, пока не узнает информацию, которая заставляет подвергнуть сомнению все то, что он знал раньше. Запутывая все еще больше, он влюбляется в свою потенциальную мишень.

Качество видео: WEB-DLRip

Продолжительность: 01:41:59
Формат: AVI
Видео: XviD, 720x400, ~1845 kbps
Аудио: русский, многоголосый закадровый [профессиональный] [Официальный звук], AC3 2.0, ~192 kbps

Код:

Полное имя : D:\Фильмы\H1m1k.2015.P.WEBDL-Rip.XViD.AC3_[*другой трекер*].avi
 Формат : AVI
 Формат/Информация : Audio Video Interleave
 Размер файла : 1,46 Гбайт
 Продолжительность : 1 ч. 41 м.
 Общий поток : 2048 Кбит/сек
 Программа кодирования : VirtualDubMod 1.5.10.3 | www.virtualdub-fr.org || (build 2550/release)
 Библиотека кодирования : VirtualDubMod build 2550/release

Видео
 Идентификатор : 0
 Формат : MPEG-4 Visual
 Профиль формата : Advanced Simple@L5
 Параметр BVOP формата : 2
 Параметр QPel формата : Нет
 Параметр GMC формата : Без точки перехода
 Параметр матрицы формата : Default (MPEG)
 Идентификатор кодека : XVID
 Идентификатор кодека/Подсказка : XviD
 Продолжительность : 1 ч. 41 м.
 Битрейт : 1846 Кбит/сек
 Ширина : 720 пикселей
 Высота : 400 пикселей
 Соотношение сторон : 16:9
 Частота кадров : 25,000 кадров/сек
 Цветовое пространство : YUV
 Субдискретизация насыщенности : 4:2:0
 Битовая глубина : 8 бит
 Тип развёртки : Прогрессивная
 Метод сжатия : С потерями
 Бит/(Пиксели*Кадры) : 0.256
 Размер потока : 1,31 Гбайт (90%)
 Библиотека кодирования : XviD 1.2.1 (UTC 2008-12-04)

Аудио
 Идентификатор : 1
 Формат : AC-3
 Формат/Информация : Audio Coding 3
 Расширение режима : CM (complete main)
 Параметр Endianness формата : Big
 Идентификатор кодека : 2000
 Продолжительность : 1 ч. 41 м.
 Вид битрейта : Постоянный
 Битрейт : 192 Кбит/сек
 Каналы : 2 канала
 Расположение каналов : Front: L R
 Частота : 48,0 КГц
 Частота кадров : 31,250 кадров/сек (1536 spf)
 Метод сжатия : С потерями
 Размер потока : 140 Мбайт (9%)
 Выравнивание : Разделение по промежуткам
 Продолжительность промежутка : 40 мс. (1,00 видеокадр)
 Время предзагрузки промежутка : 500 мс.
Семпл: http://sendfile.su/1193328

picpicpicpic
Для увеличения картинки щелкните мышкой по превью

Этот торрент недоступен для скачивания без регистрации, однако доступен по публичной magnet-ссылке (источники с публичных трекеров). Перед использованием ссылки прочтите, пожалуйста Пользовательское соглашение, а также как можно дольше оставайтесь на раздаче! Для того, чтобы скачать сам торрент-файл (который видит больше источников), а также для того, чтобы поблагодарить релизера, вам необходимо зарегистрироваться. Если регистрироваться лень - вы можете также попробовать скачать релиз по нашим партнерским ссылкам ниже.

[underverse.su].t61739.torrent
Трекер: Зарегистрирован   [ 15.01.2016 16:09 ]  

Статус: T временная (by 90ytr90 at 16.01.2016 13:29)
Поблагодарили: 2 человека
Тип торрента: публичный - доступные источники с открытых трекеров: 
Размер: 1,46 GB (занимает 1/3 DVDR, для записи нужно 1 болванка DVDR/RW)
 
 
Похожие темы
Форум Тема Автор Торрент Отв. Посл. сооб.
T Зарубежное кино [HDDVDRip / BDRip / WEB-DL / HDTV 1080/720р] Химик / The Chemist (Арт Камачо) [2015 г., боевик, WEB-DL 720p] MVO makkol
25 | 3

0 | 450

16

16.01.2016 12:55



Последний раз редактировалось: Су-34 (16.01.2016 12:23), всего редактировалось 1 раз

15-Янв-2016 17:52

Топик был перенесен из форума Новинки кино [CAMRip, TS, DVDScr, WP, TC] в форум Зарубежное кино [DVDRip, Low-Res HDRip, и т.д.]


90ytr90
 

90ytr90 

15-Янв-2016 17:56

Откуда лицензия?

WEB-DL 720p писал(а):

Профессиональное (многоголосое) [Официальный звук]

Аудио: AC3, 192 kb/s (2 ch)

Су-34 Пол:Муж

16-Янв-2016 12:24

90ytr90 писал(а):

Откуда лицензия?
Исправлено

Яндекс.Метрика powered by Sphinx


В Н И М А Н И Е
Сайт не распространяет и не хранит электронные версии произведений, а лишь бесплатно и без коммерческой выгоды (не требуя взамен платы,
SMS и т.д.) предоставляет доступ к создаваемому пользователями каталогу ссылок на торрент-файлы, которые содержат только списки хеш-сумм.
Убедительная просьба с жалобами обращаться напрямую к пользователю, разместившему торрент файл.

Вверх