Loading...
Error

Все будет хорошо / Every Thing Will Be Fine (Вим Вендерс) [2015 г., драма, HDRip] DVO

Статистика раздачи
Размер:  1,37 GB   |    Зарегистрирован:  10 месяцев   |    Скачан:  1 раз

Полного источника не было: 5 месяцев 18 дней

Сидов:  0  |  0 KB/s  ]   Личеров:  0  |  0 KB/s  ]

* - сиды/пиры с внешних источников

   
 
Автор Сообщение

makkol Пол:Муж

15-Янв-2016 14:16

Все будет хорошо / Every Thing Will Be Fine


Год выпуска: 2015
Жанр: драма
Производство: Германия , Канада , Франция , Швеция , Норвегия [Film i Väst, Göta Film, Götafilm, Mel, Montauk Productions, Wenders Images]
Режиссер: Вим Вендерс
В ролях: Рэйчел МакАдамс, Джеймс Франко, Петер Стормаре, Шарлотта Генсбур, Мари-Жозе Кроз, Патрик Бошо, Джулия Сара Стоун, Роберт Нэйлор, Джек Фултон, Лайла Фицджералд
Сюжет фильма:
История о писателе по имени Томас, который случайно оказывается виновен в смерти ребёнка. Следующие 12 лет жизни Томаса сконцентрируются на его переживаниях из-за случившегося, а также его отношениях с Кейт, матерью погибшего ребёнка.

  • Мировая премьера: 10 февраля 2015


Качество видео: HDRip

Продолжительность: 01:58:58
Формат: AVI
Видео: XviD, 720x304 (2.35:1), 25.000 fps, 1573 kbps
Аудио: русский, любительский двухголосый закадровый (Parovoz Production), AC3 2.0, 48 kHz, 128 kbps

Внимание! Присутствуют вставки рекламы!

Код:

Общее
Формат                                   : AVI
Формат/Информация                        : Audio Video Interleave
Размер файла                             : 1,37 Гбайт
Продолжительность                        : 1 ч. 54 м.
Общий поток                              : 1711 Кбит/сек
Программа кодирования                    : VirtualDubMod 1.5.10.3 | www.virtualdub-fr.org || (build 2550/release)
Библиотека кодирования                   : VirtualDubMod build 2550/release

Видео
Идентификатор                            : 0
Формат                                   : MPEG-4 Visual
Профиль формата                          : Advanced Simple@L5
Параметр BVOP формата                    : 2
Параметр QPel формата                    : Нет
Параметр GMC формата                     : Без точки перехода
Параметр матрицы формата                 : Default (MPEG)
Идентификатор кодека                     : XVID
Идентификатор кодека/Подсказка           : XviD
Продолжительность                        : 1 ч. 54 м.
Битрейт                                  : 1573 Кбит/сек
Ширина                                   : 720 пикселей
Высота                                   : 304 пикселя
Соотношение сторон                       : 2,35:1
Частота кадров                           : 25,000 кадров/сек
Цветовое пространство                    : YUV
Субдискретизация насыщенности            : 4:2:0
Битовая глубина                          : 8 бит
Тип развёртки                            : Прогрессивная
Метод сжатия                             : С потерями
Бит/(Пиксели*Кадры)                      : 0.287
Размер потока                            : 1,26 Гбайт (92%)
Библиотека кодирования                   : XviD 1.2.1 (UTC 2008-12-04)

Аудио
Идентификатор                            : 1
Формат                                   : AC-3
Формат/Информация                        : Audio Coding 3
Расширение режима                        : CM (complete main)
Идентификатор кодека                     : 2000
Продолжительность                        : 1 ч. 54 м.
Вид битрейта                             : Постоянный
Битрейт                                  : 128 Кбит/сек
Каналы                                   : 2 канала
Расположение каналов                     : Front: L R
Частота                                  : 48,0 КГц
Битовая глубина                          : 16 бит
Метод сжатия                             : С потерями
Размер потока                            : 105 Мбайт (7%)
Выравнивание                             : Разделение по промежуткам
Продолжительность промежутка             : 40  мс. (1,00 видеокадр)
Время предзагрузки промежутка            : 500  мс.
Релиз группы:

picpicpicpicpic
Для увеличения картинки щелкните мышкой по превью

Этот торрент недоступен для скачивания без регистрации, однако доступен по публичной magnet-ссылке (источники с публичных трекеров). Перед использованием ссылки прочтите, пожалуйста Пользовательское соглашение, а также как можно дольше оставайтесь на раздаче! Для того, чтобы скачать сам торрент-файл (который видит больше источников), а также для того, чтобы поблагодарить релизера, вам необходимо зарегистрироваться. Если регистрироваться лень - вы можете также попробовать скачать релиз по нашим партнерским ссылкам ниже.

[underverse.su].t61737.torrent
Трекер: Зарегистрирован   [ 15.01.2016 14:16 ]  

Статус: проверено (by makkol at 16.01.2016 13:29)
Поблагодарили: пока никто не поблагодарил...
Тип торрента: публичный - доступные источники с открытых трекеров: 
Размер: 1,37 GB (занимает 0,31 DVDR, для записи нужно 1 болванка DVDR/RW)
 
 
Похожие темы
Форум Тема Автор Торрент Отв. Посл. сооб.
% Зарубежное кино [HDDVDRip / BDRip / WEB-DL / HDTV 1080/720р] Все будет хорошо / Every Thing Will Be Fine (Вим Вендерс / Wim Wenders) [2015 г., драма, BDRip 1080p] DVO (Parovoz Production) 90ytr90
2 | 0

0 | 192

1

15.01.2016 21:09

Зарубежное кино [HDDVDRip / BDRip / WEB-DL / HDTV 1080/720р] Все будет хорошо / Every Thing Will Be Fine (Вим Вендерс / Wim Wenders) [2015 г., драма, BDRip 720p] DVO (Parovoz Production) + Original (Eng) 90ytr90
1 | 0

0 | 485

4

16.01.2016 08:42


Яндекс.Метрика powered by Sphinx


В Н И М А Н И Е
Сайт не распространяет и не хранит электронные версии произведений, а лишь бесплатно и без коммерческой выгоды (не требуя взамен платы,
SMS и т.д.) предоставляет доступ к создаваемому пользователями каталогу ссылок на торрент-файлы, которые содержат только списки хеш-сумм.
Убедительная просьба с жалобами обращаться напрямую к пользователю, разместившему торрент файл.

Вверх