Loading...
Error

Посланник / The Messenger (Дэвид Блэр) [2015 г., ужасы, триллер, драма, детектив, WEB-DLRip] DVO

Статистика раздачи
Размер:  1,45 GB   |    Зарегистрирован:  10 месяцев   |    Скачан:  16 раз

Полного источника не было: 57 минут

Сидов:  0  |  0 KB/s  ]   Личеров:  0  |  0 KB/s  ]

* - сиды/пиры с внешних источников

   
 
Автор Сообщение

makkol Пол:Муж

12-Янв-2016 22:42

Посланник / The Messenger


Год выпуска: 2015
Жанр: ужасы, триллер, драма, детектив
Производство: Великобритания [Gateway Films, Ratio Film]
Режиссер: Дэвид Блэр
В ролях: Джоэли Ричардсон, Роберт Шиэн, Дэвид О’Хара, Тэмзин Мёрчант, Лили Коул, Эндрю Тирнан, Дирдри О’Кейн, Алекс Уиндэм, Джек Фокс, Брайан Вудворд
Сюжет фильма:
В центре сюжета молодой человек по имени Джек, который видит мертвецов. Спасаясь от этих видений, Джек принимает лекарства, но вынужден помогать жестоко убитому журналисту Марку, желающему передать своей вдове Саре весточку с того света.

  • Мировая премьера: 20 июня 2015


Качество видео: WEB-DLRip

Продолжительность: 01:37:00
Формат: AVI
Видео: XviD, 720x304 (2.35:1), 25.000 fps, 1995 kbps
Аудио: русский, любительский двухголосый закадровый (Parovoz Production), AC3 2.0, 48 kHz, 192 kbps

Внимание! Присутствуют вставки рекламы!

Код:

Общее
Формат                                   : AVI
Формат/Информация                        : Audio Video Interleave
Размер файла                             : 1,45 Гбайт
Продолжительность                        : 1 ч. 36 м.
Общий поток                              : 2139 Кбит/сек
Программа кодирования                    : VirtualDubMod 1.5.10.3 | www.virtualdub-fr.org || (build 2550/release)
Библиотека кодирования                   : VirtualDubMod build 2550/release

Видео
Идентификатор                            : 0
Формат                                   : MPEG-4 Visual
Профиль формата                          : Advanced Simple@L5
Параметр BVOP формата                    : 2
Параметр QPel формата                    : Нет
Параметр GMC формата                     : Без точки перехода
Параметр матрицы формата                 : Default (MPEG)
Идентификатор кодека                     : XVID
Идентификатор кодека/Подсказка           : XviD
Продолжительность                        : 1 ч. 36 м.
Битрейт                                  : 1995 Кбит/сек
Ширина                                   : 720 пикселей
Высота                                   : 304 пикселя
Соотношение сторон                       : 2,35:1
Частота кадров                           : 25,000 кадров/сек
Цветовое пространство                    : YUV
Субдискретизация насыщенности            : 4:2:0
Битовая глубина                          : 8 бит
Тип развёртки                            : Прогрессивная
Метод сжатия                             : С потерями
Бит/(Пиксели*Кадры)                      : 0.354
Размер потока                            : 1,31 Гбайт (91%)
Библиотека кодирования                   : XviD 1.2.1 (UTC 2008-12-04)

Аудио
Идентификатор                            : 1
Формат                                   : AC-3
Формат/Информация                        : Audio Coding 3
Расширение режима                        : CM (complete main)
Идентификатор кодека                     : 2000
Продолжительность                        : 1 ч. 36 м.
Вид битрейта                             : Постоянный
Битрейт                                  : 192 Кбит/сек
Каналы                                   : 2 канала
Расположение каналов                     : Front: L R
Частота                                  : 48,0 КГц
Битовая глубина                          : 16 бит
Метод сжатия                             : С потерями
Размер потока                            : 133 Мбайт (9%)
Выравнивание                             : Разделение по промежуткам
Продолжительность промежутка             : 40  мс. (1,00 видеокадр)
Время предзагрузки промежутка            : 500  мс.
picpicpicpicpic
Для увеличения картинки щелкните мышкой по превью

Этот торрент недоступен для скачивания без регистрации, однако доступен по публичной magnet-ссылке (источники с публичных трекеров). Перед использованием ссылки прочтите, пожалуйста Пользовательское соглашение, а также как можно дольше оставайтесь на раздаче! Для того, чтобы скачать сам торрент-файл (который видит больше источников), а также для того, чтобы поблагодарить релизера, вам необходимо зарегистрироваться. Если регистрироваться лень - вы можете также попробовать скачать релиз по нашим партнерским ссылкам ниже.

[underverse.su].t61646.torrent
Трекер: Зарегистрирован   [ 12.01.2016 22:42 ]  

Статус: проверено (by makkol at 12.01.2016 23:33)
Поблагодарили: пока никто не поблагодарил...
Тип торрента: публичный - доступные источники с открытых трекеров: 
Размер: 1,45 GB (занимает 1/3 DVDR, для записи нужно 1 болванка DVDR/RW)
 
 
Похожие темы
Форум Тема Автор Торрент Отв. Посл. сооб.
Зарубежное кино [DVDRip, Low-Res HDRip, и т.д.] Посланник / The Messenger (Орен Моверман / Oren Moverman) [2009 г., мелодрама, драма, военный, BDRip] AVO (Сербин) + Original (Eng) 90ytr90
2 | 0

0 | 417

9

02.03.2015 05:12

Зарубежное кино [HDDVDRip / BDRip / WEB-DL / HDTV 1080/720р] Посланник / The Messenger (Дэвид Блэр) [2015 г., ужасы, триллер, драма, детектив, WEB-DL 720p] DVO + Original makkol
0 | 1

0 | 454

8

12.01.2016 22:55

* Архив Посланник / The Messenger (Орен Моверман) [2010 г., мелодрама, драма, военный, DVDScr] GanibalKing

2 | 682

29.08.2010 23:52


Яндекс.Метрика powered by Sphinx


В Н И М А Н И Е
Сайт не распространяет и не хранит электронные версии произведений, а лишь бесплатно и без коммерческой выгоды (не требуя взамен платы,
SMS и т.д.) предоставляет доступ к создаваемому пользователями каталогу ссылок на торрент-файлы, которые содержат только списки хеш-сумм.
Убедительная просьба с жалобами обращаться напрямую к пользователю, разместившему торрент файл.

Вверх