Loading...
Error

Профиль убийцы-2 (1-24 серии из 24) (Владимир Койфман) [2015 г., Боевик, криминал, WEBRip]

Статистика раздачи
Размер:  14,07 GB   |    Зарегистрирован:  10 месяцев   |    Скачан:  18 раз

Полного источника не было: 8 дней

Сидов:  0  |  0 KB/s  ]   Личеров:  0  |  0 KB/s  ]

* - сиды/пиры с внешних источников

   
 
Автор Сообщение

nemos Пол:Муж

11-Янв-2016 15:09

Профиль убийцы-2

Год выпуска: 2015
Жанр: Боевик, криминал
Страна: Россия
Режиссер: Владимир Койфман
В ролях: Вадим Андреев, Максим Щёголев, Денис Матросов, Владислав Дунаев, Евгений Гусев, Сергей Пиоро, Ольга Куликова, Дмитрий Грачев (II), Артём Кобзев, Сергей Колешня, Елена Любимова, Екатерина Михайлова (III), Александр Никольский, Поля Полякова, Валентин Самохин, Тимофей Смирнов, Максим Терлецкий, Константин Тополага, Руслан Ягудин, Николай Бендера, Алексей Бояджи, Дмитрий Буренков, Ольга Молочная, Денис Первойкин, Сесиль Свердлова, Руслан Спояло, Александр Числов, Сергей Васильев (VII), Андрей Белозеров, Сергей Усков, Андрей Негривода, Дмитрий Юмашев, Ксения Суркова, Андрей Зайцев (II), Алексей Овсянников, Игорь Чигасов
Сюжет фильма:
Во втором сезоне сериала «Профиль убийцы» зрители вновь встретятся с уже знакомыми им профайлерами – сотрудниками особого отдела, занимающегося раскрытием серийных убийств и изнасилований по всей России. Полковники Удальцов (Денис Матросов), Петров (Вадим Андреев), подполковник Круглов (Максим Щеголев) и капитан Субботина (Ольга Куликова) – ребята с железными нервами и острым умом. Они анализируют поведение маньяков, входя в их образ, проникая в их сознание.В новом сезоне отдел профайлеров значительно поредел – на пенсию отправили полковника Петрова. Но работы так много, что Петров постоянно помогает коллегам в качестве эксперта и научного консультанта. В разработку группы попадает маньяк провозгласивший себя Миссионером, он истребляет всех заблудших и сбившихся с правильного пути людей - бродяг, проституток. Этот контингент не побежит жаловаться в полицию, что их кто-то преследует. До них никому нет дела… Профайлерам удастся раскрыть преступление двадцатилетней давности, и даже спасти от неминуемого суда своего руководителя - генерала Губанова.Но герои сериала не только опытные сыщики с изощренным умом. Они такие же люди, как и все, и им тоже, подчас, не хватает простых человеческих радостей и положительных эмоций. Возможно, что им они нужны даже больше чем обычным людям. Удальцов встретит свою первую любовь, и пожар любви вспыхнет с новой силой. Круглов и Субботина неоднократно пытаются назначить день свадьбы, но каждый раз очередное дело отрывает их от счастливого дня. Это становится серьезной проблемой для пары. Но перспектив к облегчению работы, увы, никаких. Дела становиться все запутанней и страшней. Каждое новое дело - это новая жуткая трагедия и чем быстрее профайлеры составят «профиль убийцы», тем больше жизней им удастся уберечь.


Качество видео: WEBRip

Продолжительность: 00:47:05 серия
Формат: AVI
Видео: XviD, 704x400, 1580 kbps
Аудио: русский, AC3 2.0, 192 kbps

Код:

F:\Profil.ubijcy.2.2015.WEBRip.Files-x\01.Profil.ubijcy.2.2015.WEBRip.Files-x.avi
   General
      Complete name : F:\Profil.ubijcy.2.2015.WEBRip.Files-x\01.Profil.ubijcy.2.2015.WEBRip.Files-x.avi
      Format : AVI
      Format/Info : Audio Video Interleave
      File size : 600 MiB
      Duration : 47mn 5s
      Overall bit rate : 1 781 Kbps
      Writing application : VirtualDubMod 1.5.10.3 | www.virtualdub-fr.org || (build 2550/release)
      Writing library : VirtualDubMod build 2550/release
   Video #0
      ID : 0
      Format : MPEG-4 Visual
      Format profile : Advanced Simple@L5
      Format settings, BVOP : 1
      Format settings, QPel : No
      Format settings, GMC : No warppoints
      Format settings, Matrix : Custom
      Codec ID : XVID
      Codec ID/Hint : XviD
      Duration : 47mn 5s
      Bit rate : 1 580 Kbps
      Width : 704 pixels
      Height : 400 pixels
      Display aspect ratio : 16:9
      Frame rate : 25.000 fps
      Color space : YUV
      Chroma subsampling : 4:2:0
      Bit depth : 8 bits
      Scan type : Progressive
      Compression mode : Lossy
      Bits/(Pixel*Frame) : 0.224
      Stream size : 532 MiB (89%)
      Writing library : XviD 73
   Audio #1
      ID : 1
      Format : AC-3
      Format/Info : Audio Coding 3
      Mode extension : CM (complete main)
      Format settings, Endianness : Big
      Codec ID : 2000
      Duration : 47mn 5s
      Bit rate mode : Constant
      Bit rate : 192 Kbps
      Channel(s) : 2 channels
      Channel positions : Front: L R
      Sampling rate : 48.0 KHz
      Bit depth : 16 bits
      Compression mode : Lossy
      Stream size : 64.7 MiB (11%)
      Alignment : Split accross interleaves
      Interleave, duration : 40 ms (1.00 video frame)
      Interleave, preload duration : 500 ms
picpicpic
Для увеличения картинки щелкните мышкой по превью

Этот торрент недоступен для скачивания без регистрации, однако доступен по публичной magnet-ссылке (источники с публичных трекеров). Перед использованием ссылки прочтите, пожалуйста Пользовательское соглашение, а также как можно дольше оставайтесь на раздаче! Для того, чтобы скачать сам торрент-файл (который видит больше источников), а также для того, чтобы поблагодарить релизера, вам необходимо зарегистрироваться. Если регистрироваться лень - вы можете также попробовать скачать релиз по нашим партнерским ссылкам ниже.

[underverse.su].t61600.torrent
Трекер: Зарегистрирован   [ 11.01.2016 15:09 ]  

Статус: проверено (by nemos at 11.01.2016 15:44)
Поблагодарили: пока никто не поблагодарил...
Тип торрента: публичный - доступные источники с открытых трекеров: 
Размер: 14,07 GB (занимает 3,21 DVDR, для записи нужно 4 болванки DVDR/RW)
 
 
Похожие темы
Форум Тема Автор Торрент Отв. Посл. сооб.
xUSSR сериалы Профиль убийцы [1-16 серии из 16] (Владимир Койфман) [2012 г., детектив, SatRip] nemos
1 | 0

0 | 1250

9

14.07.2012 19:25


Яндекс.Метрика powered by Sphinx


В Н И М А Н И Е
Сайт не распространяет и не хранит электронные версии произведений, а лишь бесплатно и без коммерческой выгоды (не требуя взамен платы,
SMS и т.д.) предоставляет доступ к создаваемому пользователями каталогу ссылок на торрент-файлы, которые содержат только списки хеш-сумм.
Убедительная просьба с жалобами обращаться напрямую к пользователю, разместившему торрент файл.

Вверх