Loading...
Error

Рыцарь кубков / Knight of Cups (Терренс Малик) [2015 г., драма, мелодрама, HDRip] DVO

Статистика раздачи
Размер:  1,45 GB   |    Зарегистрирован:  10 месяцев   |    Скачан:  23 раза

Полного источника не было: 2 дня 17 часов

Сидов:  0  |  0 KB/s  ]   Личеров:  0  |  0 KB/s  ]

* - сиды/пиры с внешних источников

   
 
Автор Сообщение

makkol Пол:Муж

08-Янв-2016 13:39

Рыцарь кубков / Knight of Cups


Год выпуска: 2015
Жанр: драма, мелодрама
Производство: США [Dogwood Films, Waypoint Entertainment]
Режиссер: Терренс Малик
В ролях: Кристиан Бэйл, Кейт Бланшетт, Натали Портман, Брайан Деннехи, Антонио Бандерас, Майкл Уинкотт, Фрида Пинто, Уэс Бентли, Изабель Лукас, Тереза Палмер
Сюжет фильма:
Сценарист из Лос-Анджелеса, пытается разобраться в странных событиях, происходящих в его жизни. Он успешен в своей карьере, но чувствует себя лишним в этой жизни. Из-за смерти брата у него возникают проблемы в отношениях с отцом, поэтому большую часть времени он проводит, кочуя из одной богемной вечеринки на другую, при этом каждый раз меняя женщин. Любовные романы отвлекают его от ежедневной боли, из-за утраты близкого человека. И каждая новая встреча, возникающая на его пути, приближает его к поиску своего места в мире.

  • Мировая премьера: 8 февраля 2015


Качество видео: HDRip

Продолжительность: 01:58:43
Формат: AVI
Видео: XviD, 720x304 (2.35:1), 23.976 fps, 1554 kbps
Аудио: русский, любительский двухголосый закадровый (Parovoz Production), AC3 2.0, 48 kHz, 192 kbps

Внимание! Присутствуют голосовые и текстовые вставки рекламы!

Код:

Общее
Формат                                   : AVI
Формат/Информация                        : Audio Video Interleave
Размер файла                             : 1,45 Гбайт
Продолжительность                        : 1 ч. 58 м.
Общий поток                              : 1756 Кбит/сек
Программа кодирования                    : VirtualDubMod 1.5.10.3 | www.virtualdub-fr.org || (build 2550/release)
Библиотека кодирования                   : VirtualDubMod build 2550/release

Видео
Идентификатор                            : 0
Формат                                   : MPEG-4 Visual
Профиль формата                          : Advanced Simple@L5
Параметр BVOP формата                    : 2
Параметр QPel формата                    : Нет
Параметр GMC формата                     : Без точки перехода
Параметр матрицы формата                 : Default (MPEG)
Идентификатор кодека                     : XVID
Идентификатор кодека/Подсказка           : XviD
Продолжительность                        : 1 ч. 58 м.
Битрейт                                  : 1554 Кбит/сек
Ширина                                   : 720 пикселей
Высота                                   : 304 пикселя
Соотношение сторон                       : 2,35:1
Частота кадров                           : 23,976 (24000/1001) кадра/сек
Цветовое пространство                    : YUV
Субдискретизация насыщенности            : 4:2:0
Битовая глубина                          : 8 бит
Тип развёртки                            : Прогрессивная
Метод сжатия                             : С потерями
Бит/(Пиксели*Кадры)                      : 0.296
Размер потока                            : 1,29 Гбайт (89%)
Библиотека кодирования                   : XviD 1.2.1 (UTC 2008-12-04)

Аудио
Идентификатор                            : 1
Формат                                   : AC-3
Формат/Информация                        : Audio Coding 3
Расширение режима                        : CM (complete main)
Параметр Endianness формата              : Big
Идентификатор кодека                     : 2000
Продолжительность                        : 1 ч. 58 м.
Вид битрейта                             : Постоянный
Битрейт                                  : 192 Кбит/сек
Каналы                                   : 2 канала
Расположение каналов                     : Front: L R
Частота                                  : 48,0 КГц
Частота кадров                           : 31,250 кадров/сек (1536 spf)
Метод сжатия                             : С потерями
Размер потока                            : 163 Мбайт (11%)
Выравнивание                             : Разделение по промежуткам
Продолжительность промежутка             : 42  мс. (1,00 видеокадр)
Время предзагрузки промежутка            : 500  мс.
picpicpicpicpic
Для увеличения картинки щелкните мышкой по превью

Этот торрент недоступен для скачивания без регистрации, однако доступен по публичной magnet-ссылке (источники с публичных трекеров). Перед использованием ссылки прочтите, пожалуйста Пользовательское соглашение, а также как можно дольше оставайтесь на раздаче! Для того, чтобы скачать сам торрент-файл (который видит больше источников), а также для того, чтобы поблагодарить релизера, вам необходимо зарегистрироваться. Если регистрироваться лень - вы можете также попробовать скачать релиз по нашим партнерским ссылкам ниже.

[underverse.su].t61447.torrent
Трекер: Зарегистрирован   [ 08.01.2016 13:39 ]  

Статус: проверено (by makkol at 08.01.2016 20:57)
Поблагодарили: пока никто не поблагодарил...
Тип торрента: публичный - доступные источники с открытых трекеров: 
Размер: 1,45 GB (занимает 1/3 DVDR, для записи нужно 1 болванка DVDR/RW)
 
 
Похожие темы
Форум Тема Автор Торрент Отв. Посл. сооб.
T Зарубежное кино [DVDRip, Low-Res HDRip, и т.д.] Рыцарь кубков / Knight of Cups (Терренс Малик / Terrence Malick) [2015 г., драма, мелодрама, BDRip] MVO (iTunes) 90ytr90
18 | 0

0 | 262

2

28.11.2016 16:01

T Зарубежное кино [DVDRip, Low-Res HDRip, и т.д.] Рыцарь кубков / Knight of Cups (Терренс Малик / Terrence Malick) [2015 г., драма, мелодрама, BDRip] MVO (iTunes) + Original (Eng) 90ytr90
11 | 0

0 | 338

0

28.11.2016 15:58

Зарубежное кино [DVDRip, Low-Res HDRip, и т.д.] Рыцарь кубков / Knight of Cups (Терренс Малик / Terrence Malick) [2015 г., драма, мелодрама, BDRip-AVC] MVO (FocusStudio) + Original (Eng) + Sub (Rus, Eng) 90ytr90
33 | 2

0 | 188

2

13.11.2016 14:35

Зарубежное кино [DVDRip, Low-Res HDRip, и т.д.] Рыцарь кубков / Knight of Cups (Терренс Малик / Terrence Malick) [2015 г., драма, мелодрама, BDRip-AVC] MVO (FocusStudio) + Sub (Rus) 90ytr90
218 | 7

0 | 247

3

13.11.2016 14:31

Зарубежное кино [DVDRip, Low-Res HDRip, и т.д.] Рыцарь кубков / Knight of Cups (Терренс Малик / Terrence Malick) [2015 г., драма, мелодрама, HDRip] MVO (FocusStudio) 90ytr90
3 | 0

0 | 325

0

13.11.2016 14:20

Зарубежное кино [DVDRip, Low-Res HDRip, и т.д.] Рыцарь кубков / Knight of Cups (Терренс Малик / Terrence Malick) [2015 г., драма, мелодрама, HDRip] MVO (FocusStudio) 90ytr90
8 | 0

0 | 566

8

11.06.2016 16:33

Зарубежное кино [DVDRip, Low-Res HDRip, и т.д.] Рыцарь кубков / Knight of Cups (Терренс Малик / Terrence Malick) [2015 г., драма, мелодрама, HDRip] MVO (FocusStudio) + Original (Eng) 90ytr90
20 | 2

0 | 553

2

11.06.2016 16:38

Зарубежное кино [DVDRip, Low-Res HDRip, и т.д.] Рыцарь кубков / Knight of Cups (Терренс Малик / Terrence Malick) [2015 г., драма, мелодрама, HDRip] MVO (FocusStudio) + Original (Eng) + Sub (Rus, Eng) 90ytr90
9 | 0

0 | 472

3

13.06.2016 19:18

Зарубежное кино [HDDVDRip / BDRip / WEB-DL / HDTV 1080/720р] Рыцарь кубков / Knight of Cups (Терренс Малик) [2015 г., драма, мелодрама, BDRip 720p] DVO + Original romeoexpert
18 | 0

0 | 664

14

07.01.2016 10:36

Зарубежное кино [HDDVDRip / BDRip / WEB-DL / HDTV 1080/720р] Рыцарь кубков / Knight of Cups (Терренс Малик / Terrence Malick) [2015 г., драма, мелодрама, BDRip 720p] MVO (FocusStudio) + Original (Eng) + Sub (Rus, Eng) 90ytr90
31 | 0

0 | 540

4

11.06.2016 16:54


Яндекс.Метрика powered by Sphinx


В Н И М А Н И Е
Сайт не распространяет и не хранит электронные версии произведений, а лишь бесплатно и без коммерческой выгоды (не требуя взамен платы,
SMS и т.д.) предоставляет доступ к создаваемому пользователями каталогу ссылок на торрент-файлы, которые содержат только списки хеш-сумм.
Убедительная просьба с жалобами обращаться напрямую к пользователю, разместившему торрент файл.

Вверх