Loading...
Error

Бесконечно белый медведь / Infinitely Polar Bear (Майя Форбс) [2014 г., драма, комедия, HDRip] DVO

Статистика раздачи
Размер:  1,45 GB   |    Зарегистрирован:  10 месяцев   |    Скачан:  4 раза

Полного источника не было: 18 дней

Сидов:  0  |  0 KB/s  ]   Личеров:  0  |  0 KB/s  ]

* - сиды/пиры с внешних источников

   
 
Автор Сообщение

makkol Пол:Муж

08-Янв-2016 13:14

Бесконечно белый медведь / Infinitely Polar Bear


Год выпуска: 2014
Жанр: драма, комедия
Производство: США [Bad Robot, KGB Media, Paper Street Films, Park Pictures]
Режиссер: Майя Форбс
В ролях: Зои Салдана, Марк Руффало, Кейр Дуллеа, Уоллес Володарски, Имоджин Володарски, Мэри О’Рурк, Брианн Брози, Адам В. Майэрсон, Уильям Ксифарас
Сюжет фильма:
Кэмерон пытается вернуть свою жену Мэгги. Ради этого он пробует взять на себя полную ответственность за их двух молодых дочерей, которые отнюдь не стараются облегчить ему задачу.

  • Мировая премьера: 18 января 2014


Качество видео: HDRip

Продолжительность: 01:28:14
Формат: AVI
Видео: XviD, 720x384 (1.85:1), 23.976 fps, 1966 kbps
Аудио: русский, любительский двухголосый закадровый (Parovoz Production), AC3 2.0, 48 kHz, 384 kbps

Внимание! Присутствуют голосовые и текстовые вставки рекламы!

Код:

Общее
Формат                                   : AVI
Формат/Информация                        : Audio Video Interleave
Размер файла                             : 1,45 Гбайт
Продолжительность                        : 1 ч. 28 м.
Общий поток                              : 2360 Кбит/сек
Программа кодирования                    : VirtualDubMod 1.5.10.3 | www.virtualdub-fr.org || (build 2550/release)
Библиотека кодирования                   : VirtualDubMod build 2550/release

Видео
Идентификатор                            : 0
Формат                                   : MPEG-4 Visual
Профиль формата                          : Advanced Simple@L5
Параметр BVOP формата                    : 2
Параметр QPel формата                    : Нет
Параметр GMC формата                     : Без точки перехода
Параметр матрицы формата                 : Default (MPEG)
Идентификатор кодека                     : XVID
Идентификатор кодека/Подсказка           : XviD
Продолжительность                        : 1 ч. 28 м.
Битрейт                                  : 1966 Кбит/сек
Ширина                                   : 720 пикселей
Высота                                   : 384 пикселя
Соотношение сторон                       : 1,85:1
Частота кадров                           : 23,976 (24000/1001) кадра/сек
Цветовое пространство                    : YUV
Субдискретизация насыщенности            : 4:2:0
Битовая глубина                          : 8 бит
Тип развёртки                            : Прогрессивная
Метод сжатия                             : С потерями
Бит/(Пиксели*Кадры)                      : 0.297
Размер потока                            : 1,21 Гбайт (83%)
Библиотека кодирования                   : XviD 1.2.1 (UTC 2008-12-04)

Аудио
Идентификатор                            : 1
Формат                                   : AC-3
Формат/Информация                        : Audio Coding 3
Расширение режима                        : CM (complete main)
Параметр Endianness формата              : Big
Идентификатор кодека                     : 2000
Продолжительность                        : 1 ч. 28 м.
Вид битрейта                             : Постоянный
Битрейт                                  : 384 Кбит/сек
Каналы                                   : 2 канала
Расположение каналов                     : Front: L R
Частота                                  : 48,0 КГц
Частота кадров                           : 31,250 кадров/сек (1536 spf)
Метод сжатия                             : С потерями
Размер потока                            : 242 Мбайт (16%)
Выравнивание                             : Разделение по промежуткам
Продолжительность промежутка             : 42  мс. (1,00 видеокадр)
Время предзагрузки промежутка            : 500  мс.
picpicpicpicpic
Для увеличения картинки щелкните мышкой по превью

Этот торрент недоступен для скачивания без регистрации, однако доступен по публичной magnet-ссылке (источники с публичных трекеров). Перед использованием ссылки прочтите, пожалуйста Пользовательское соглашение, а также как можно дольше оставайтесь на раздаче! Для того, чтобы скачать сам торрент-файл (который видит больше источников), а также для того, чтобы поблагодарить релизера, вам необходимо зарегистрироваться. Если регистрироваться лень - вы можете также попробовать скачать релиз по нашим партнерским ссылкам ниже.

[underverse.su].t61444.torrent
Трекер: Зарегистрирован   [ 08.01.2016 13:14 ]  

Статус: проверено (by makkol at 08.01.2016 20:56)
Поблагодарили: пока никто не поблагодарил...
Тип торрента: публичный - доступные источники с открытых трекеров: 
Размер: 1,45 GB (занимает 1/3 DVDR, для записи нужно 1 болванка DVDR/RW)
 
 
Похожие темы
Форум Тема Автор Торрент Отв. Посл. сооб.
Зарубежное кино [DVDRip, Low-Res HDRip, и т.д.] Бесконечность / Infini (Шейн Эббесс) [2015 г., Фантастика, Триллер, Драма, WEB-DLRip] DVO (RUS) Ведьмочка
1 | 0

1 | 1262

119

28.06.2015 12:27

Зарубежное кино [DVDRip, Low-Res HDRip, и т.д.] Бесконечно белый медведь / Infinitely Polar Bear (Майя Форбс / Maya Forbes) [2014 г., драма, комедия, BDRip] MVO + Sub (Rus, Eng) 90ytr90
3 | 0

0 | 579

16

09.01.2016 08:25

Зарубежное кино [DVDRip, Low-Res HDRip, и т.д.] Бесконечно белый медведь / Infinitely Polar Bear (Майя Форбс / Maya Forbes) [2014 г., драма, комедия, BDRip-AVC] MVO + Original (Eng) 90ytr90
22 | 0

0 | 232

6

09.01.2016 09:24

Зарубежное кино [DVDRip, Low-Res HDRip, и т.д.] Бесконечно белый медведь / Infinitely Polar Bear (Майя Форбс / Maya Forbes) [2014 г., драма, комедия, BDRip-AVC] MVO + Sub (Rus, Eng) 90ytr90
17 | 0

0 | 361

3

09.01.2016 11:45

Зарубежное кино [HDDVDRip / BDRip / WEB-DL / HDTV 1080/720р] Бесконечность / Infini (Шейн Эббесс) [2015 г., Фантастика, Триллер, Драма, WEB-DL 720p] DVO (RUS) + Original (ENG) + Subs (ENG) Ведьмочка
8 | 0

0 | 813

43

23.05.2015 19:39

Зарубежное кино [HDDVDRip / BDRip / WEB-DL / HDTV 1080/720р] Бесконечно белый медведь / Infinitely Polar Bear (Майя Форбс) [2014 г., драма, комедия, BDRip 1080p] DVO + Original makkol
2 | 0

0 | 342

2

08.01.2016 13:22

Зарубежное кино [HDDVDRip / BDRip / WEB-DL / HDTV 1080/720р] Бесконечно белый медведь / Infinitely Polar Bear (Майя Форбс / Maya Forbes) [2014 г., драма, комедия, BDRip 720p] MVO + Original (Eng) 90ytr90
25 | 2

0 | 256

5

09.01.2016 08:31

Зарубежное кино [HDDVDRip / BDRip / WEB-DL / HDTV 1080/720р] Бесконечно белый медведь / Infinitely Polar Bear (Майя Форбс / Maya Forbes) [2014 г., драма, комедия, BDRip 1080p] MVO + Original (Eng) 90ytr90
4 | 2

0 | 275

6

09.01.2016 08:56


Яндекс.Метрика powered by Sphinx


В Н И М А Н И Е
Сайт не распространяет и не хранит электронные версии произведений, а лишь бесплатно и без коммерческой выгоды (не требуя взамен платы,
SMS и т.д.) предоставляет доступ к создаваемому пользователями каталогу ссылок на торрент-файлы, которые содержат только списки хеш-сумм.
Убедительная просьба с жалобами обращаться напрямую к пользователю, разместившему торрент файл.

Вверх