Loading...
Error

Ты лучше смотри в оба / You Better Watch Out / Christmas Evil (Льюис Джексон) [1980 г., ужасы, триллер, DVDRip] AVO

Статистика раздачи
Размер:  1,46 GB   |    Зарегистрирован:  1 год   |    Скачан:  6 раз

Полного источника не было: 11 месяцев

Сидов:  0  |  0 KB/s  ]   Личеров:  0  |  0 KB/s  ]

* - сиды/пиры с внешних источников

   
 
Автор Сообщение

makkol Пол:Муж

01-Янв-2016 10:32

Ты лучше смотри в оба / You Better Watch Out / Christmas Evil


Год выпуска: 1980
Жанр: ужасы, триллер
Производство: США [Edward R. Pressman Film]
Режиссер: Льюис Джексон
В ролях: Брэндон Мэггарт, Джефри ДеМанн, Дайян Халл, Энди Фенвик, Брайан Невилл, Джо Джамрог, Уолли Моран, Гас Салуд, Эллен МакЭлдафф, Брайан Хэртиган
Сюжет фильма:
Канун рождества 1947 года. Маленький мальчик Гарри случайно видит, как его мать занимается оральным сексом с мужчиной в наряде Санта — Клауса. Гарри выбегает из дома и в припадке ревности ломает стоящего во дворе снеговика, растаптывая снег на мелкие кусочки. Проходит много лет. Гарри очень трепетно относится к рождественским праздникам и обожает Санта — Клауса. Он даже работает на кукольной фабрике «Jolly Dream Toy Factory», изготавливающей рождественские игрушки. Но разум Гарри настолько поврежден, что он пристально наблюдает за детьми и заносит их имена в две свои книги: «Плохие дети» и «Хорошие дети». Оказаться в том или ином списке ребёнок может в соответствии со своим отношением к рождеству. Постепенно безумие Гарри начинает принимать насильственные формы…

  • Мировая премьера: Ноябрь 1980


Качество видео: DVDRip

Продолжительность: 01:33:52
Формат: AVI
Видео: XviD, 704x400 (16:9), 23.976 fps, 2024 kbps
Аудио: русский, авторский одноголосый закадровый (Андрей Дольский), AC3 2.0, 48 kHz, 192 kbps

Код:

Формат : AVI
Формат/Информация : Audio Video Interleave
Размер файла : 1,46 Гбайт
Продолжительность : 1 ч. 33 м.
Общий поток : 2226 Кбит/сек
Программа кодирования : VirtualDubMod 1.5.10.3 | www.virtualdub-fr.org || (build 2550/release)
Библиотека кодирования : VirtualDubMod build 2550/release

Видео
Идентификатор : 0
Формат : MPEG-4 Visual
Профиль формата : Advanced Simple@L5
Параметр BVOP формата : 2
Параметр QPel формата : Нет
Параметр GMC формата : Без точки перехода
Параметр матрицы формата : Default (MPEG)
Идентификатор кодека : DX50
Идентификатор кодека/Подсказка : DivX 5
Продолжительность : 1 ч. 33 м.
Битрейт : 2025 Кбит/сек
Ширина : 704 пикселя
Высота : 400 пикселей
Соотношение сторон : 16:9
Частота кадров : 23,976 кадра/сек
Цветовое пространство : YUV
Субдискретизация насыщенности : 4:2:0
Битовая глубина : 8 бит
Тип развёртки : Прогрессивная
Метод сжатия : С потерями
Бит/(Пиксели*Кадры) : 0.300
Размер потока : 1,33 Гбайт (91%)
Библиотека кодирования : XviD 1.2.1 (UTC 2008-12-04)

Аудио
Идентификатор : 1
Формат : AC-3
Формат/Информация : Audio Coding 3
Расширение режима : CM (complete main)
Параметр Endianness формата : Big
Идентификатор кодека : 2000
Продолжительность : 1 ч. 33 м.
Вид битрейта : Постоянный
Битрейт : 192 Кбит/сек
Каналы : 2 канала
Расположение каналов : Front: L R
Частота : 48,0 КГц
Битовая глубина : 16 бит
Метод сжатия : С потерями
Размер потока : 129 Мбайт (9%)
Выравнивание : Разделение по промежуткам
Продолжительность промежутка : 42 мс. (1,00 видеокадр)
Время предзагрузки промежутка : 500 мс.
[свернуть]
Релиз от:

picpicpicpicpic
Для увеличения картинки щелкните мышкой по превью

Этот торрент недоступен для скачивания без регистрации, однако доступен по публичной magnet-ссылке (источники с публичных трекеров). Перед использованием ссылки прочтите, пожалуйста Пользовательское соглашение, а также как можно дольше оставайтесь на раздаче! Для того, чтобы скачать сам торрент-файл (который видит больше источников), а также для того, чтобы поблагодарить релизера, вам необходимо зарегистрироваться. Если регистрироваться лень - вы можете также попробовать скачать релиз по нашим партнерским ссылкам ниже.

[underverse.su].t61307.torrent
Трекер: Зарегистрирован   [ 01.01.2016 10:32 ]  

Статус: проверено (by makkol at 01.01.2016 10:39)
Поблагодарили: пока никто не поблагодарил...
Тип торрента: публичный - доступные источники с открытых трекеров: 
Размер: 1,46 GB (занимает 0,33 DVDR, для записи нужно 1 болванка DVDR/RW)
 
 

Adarvik Пол:Муж

02-Янв-2016 09:20

фильм, несомненно, классика слэшер-кинематографа.

Яндекс.Метрика powered by Sphinx


В Н И М А Н И Е
Сайт не распространяет и не хранит электронные версии произведений, а лишь бесплатно и без коммерческой выгоды (не требуя взамен платы,
SMS и т.д.) предоставляет доступ к создаваемому пользователями каталогу ссылок на торрент-файлы, которые содержат только списки хеш-сумм.
Убедительная просьба с жалобами обращаться напрямую к пользователю, разместившему торрент файл.

Вверх