Loading...
Error

Метаморфозис (Сергей Тарамаев, Любовь Львова) [2015 г., драма, WEB-DLRip]

Статистика раздачи
Размер:  1,44 GB   |    Зарегистрирован:  11 месяцев   |    Скачан:  26 раз

Полного источника не было: 4 месяца 7 дней

Сидов:  0  |  0 KB/s  ]   Личеров:  0  |  0 KB/s  ]

* - сиды/пиры с внешних источников

   
 
Автор Сообщение

makkol Пол:Муж

01-Янв-2016 09:40

Метаморфозис


Год выпуска: 2015
Жанр: драма
Производство: Россия [Альфа-Бета Фильм]
Режиссер: Сергей Тарамаев, Любовь Львова
В ролях: Егор Корешков, Евгений Ткачук, Василиса Бернаскони, Юлия Ауг, Ёла Санько, Денис Шведов, Амбарцум Кабанян, Сергей Русскин, Николай Орловский, Светлана Столярова
Сюжет фильма:
Жизнь талантливого пианиста Алексея Сенина – это репетиции, концерты, музыка. Ничего, кроме музыки. Мать, целиком подчинившая своей безумной любовью сына. Тетка, озабоченная исключительно бытом. Предприимчивый директор Влад. Ближний круг – из абсолютно чужих ему людей. В свои двадцать пять Алексей, несмотря на известность и признание, словно одинокий несчастный ребенок. Однажды, выступая в доме состоятельного бизнесмена, он знакомится с дочкой хозяина, 11-летней Сашей. И в ней он находит родственную душу. Их невинная дружба вызывает вокруг страшную бурю злобы, запретов и насилия. Девочка и музыкант – два чистых и светлых человека, против которых ополчился циничный, жестокий и больной мир…

  • Российская премьера: 19 ноября 2015


Качество видео: WEB-DLRip

Продолжительность: 01:43:08
Формат: AVI
Видео: XviD, 720x304 (2.35:1), 24.000 fps, 1610 kbps
Аудио: русский, оригинал (iTunes), AC3 5.1, 48 kHz, 384 kbps

Код:

Общее
Формат                                   : AVI
Формат/Информация                        : Audio Video Interleave
Размер файла                             : 1,44 Гбайт
Продолжительность                        : 1 ч. 43 м.
Общий поток                              : 2003 Кбит/сек
Программа кодирования                    : VirtualDubMod 1.5.10.2 (build 2540/release)
Библиотека кодирования                   : VirtualDubMod build 2540/release

Видео
Идентификатор                            : 0
Формат                                   : MPEG-4 Visual
Профиль формата                          : Advanced Simple@L5
Параметр BVOP формата                    : 2
Параметр QPel формата                    : Нет
Параметр GMC формата                     : Без точки перехода
Параметр матрицы формата                 : Выборочная
Идентификатор кодека                     : XVID
Идентификатор кодека/Подсказка           : XviD
Продолжительность                        : 1 ч. 43 м.
Битрейт                                  : 1610 Кбит/сек
Ширина                                   : 720 пикселей
Высота                                   : 304 пикселя
Соотношение сторон                       : 2,35:1
Частота кадров                           : 24,000 кадра/сек
Цветовое пространство                    : YUV
Субдискретизация насыщенности            : 4:2:0
Битовая глубина                          : 8 бит
Тип развёртки                            : Прогрессивная
Метод сжатия                             : С потерями
Бит/(Пиксели*Кадры)                      : 0.306
Размер потока                            : 1,16 Гбайт (80%)
Библиотека кодирования                   : XviD 1.2.1 (UTC 2008-12-04)

Аудио
Идентификатор                            : 1
Формат                                   : AC-3
Формат/Информация                        : Audio Coding 3
Расширение режима                        : CM (complete main)
Идентификатор кодека                     : 2000
Продолжительность                        : 1 ч. 43 м.
Вид битрейта                             : Постоянный
Битрейт                                  : 384 Кбит/сек
Каналы                                   : 6 каналов
Расположение каналов                     : Front: L C R, Side: L R, LFE
Частота                                  : 48,0 КГц
Битовая глубина                          : 16 бит
Метод сжатия                             : С потерями
Размер потока                            : 283 Мбайт (19%)
Выравнивание                             : Разделение по промежуткам
Продолжительность промежутка             : 42  мс. (1,00 видеокадр)
Время предзагрузки промежутка            : 500  мс.
picpicpicpicpic
Для увеличения картинки щелкните мышкой по превью

Этот торрент недоступен для скачивания без регистрации, однако доступен по публичной magnet-ссылке (источники с публичных трекеров). Перед использованием ссылки прочтите, пожалуйста Пользовательское соглашение, а также как можно дольше оставайтесь на раздаче! Для того, чтобы скачать сам торрент-файл (который видит больше источников), а также для того, чтобы поблагодарить релизера, вам необходимо зарегистрироваться. Если регистрироваться лень - вы можете также попробовать скачать релиз по нашим партнерским ссылкам ниже.

[underverse.su].t61303.torrent
Трекер: Зарегистрирован   [ 01.01.2016 09:40 ]  

Статус: T временная (by makkol at 01.01.2016 10:36)
Поблагодарили: пока никто не поблагодарил...
Тип торрента: публичный - доступные источники с открытых трекеров: 
Размер: 1,44 GB (занимает 0,33 DVDR, для записи нужно 1 болванка DVDR/RW)
 
 
Похожие темы
Форум Тема Автор Торрент Отв. Посл. сооб.
T Наше кино [HDDVDRip / BDRip / WEB-DL / HDTV 1080/720р] Метаморфозис (Сергей Тарамаев, Любовь Львова) [2015 г., драма, WEB-DL 1080p] makkol
1 | 0

0 | 735

17

01.01.2016 09:48


Яндекс.Метрика powered by Sphinx


В Н И М А Н И Е
Сайт не распространяет и не хранит электронные версии произведений, а лишь бесплатно и без коммерческой выгоды (не требуя взамен платы,
SMS и т.д.) предоставляет доступ к создаваемому пользователями каталогу ссылок на торрент-файлы, которые содержат только списки хеш-сумм.
Убедительная просьба с жалобами обращаться напрямую к пользователю, разместившему торрент файл.

Вверх