Loading...
Error

Superнянь 2 / Babysitting 2 (Николас Бенаму, Филипп Лашо) [2015 г., комедия, WEB-DLRip] Dub

Статистика раздачи
Размер:  1,37 GB   |    Зарегистрирован:  11 месяцев   |    Скачан:  115 раз

Полного источника не было: 7 дней

Сидов:  0  |  0 KB/s  ]   Личеров:  0  |  0 KB/s  ]

* - сиды/пиры с внешних источников

   
 
Автор Сообщение

makkol Пол:Муж

01-Янв-2016 09:12

Superнянь 2 / Babysitting 2


Год выпуска: 2015
Жанр: комедия
Производство: Франция [Axel Films, Cinéfrance 1888, Good Lap Production]
Режиссер: Николас Бенаму, Филипп Лашо
В ролях: Филипп Лашо, Алис Давид, Венсан Дезанья, Тарек Будали, Кристиан Клавье, Жюльен Аррути, Грегуар Людиг, Давид Марсе, Шарлотта Габрис, Бето Бенитес
Сюжет фильма:
Влюбленная парочка Фрэнк и Соня приглашают своих друзей на отдых в Бразилию, в роскошный отель богатенького папы Сони. Планировалось, что это будет отдых мечты, а Фрэнк сделает Соне предложение посреди всей этой экзотики. Но его попытки получить одобрение отца оборачиваются полным провалом. Ведь с такими друзьями, как у него, и враги не нужны! Но настоящая катастрофа - впереди. Когда друзья - сексуально озабоченный Сэм, наивный чудак Эрнест и умственно отсталый Алекс - вместе с беднягой Фрэнком собрались на экскурсию, ушлый папаша пользуется возможностью и засылает в джунгли с этой бандой свою крикливую и надоедливую старушку. В общем, Амазонка и ее девственные леса еще никогда не были в такой опасности!

  • Мировая премьера: 14 октября 2015
  • Российская премьера: 3 декабря 2015


Качество видео: WEB-DLRip

Продолжительность: 01:32:41
Формат: AVI
Видео: XviD, 720x400 (16:9), 24.000 fps, 1718 kbps
Аудио: русский, дублированный (iTunes), AC3 5.1, 48 kHz, 384 kbps

Код:

Общее
Формат                                   : AVI
Формат/Информация                        : Audio Video Interleave
Размер файла                             : 1,37 Гбайт
Продолжительность                        : 1 ч. 32 м.
Общий поток                              : 2111 Кбит/сек
Программа кодирования                    : VirtualDubMod 1.5.10.2 (build 2540/release)
Библиотека кодирования                   : VirtualDubMod build 2540/release

Видео
Идентификатор                            : 0
Формат                                   : MPEG-4 Visual
Профиль формата                          : Advanced Simple@L5
Параметр BVOP формата                    : 2
Параметр QPel формата                    : Нет
Параметр GMC формата                     : Без точки перехода
Параметр матрицы формата                 : Default (MPEG)
Идентификатор кодека                     : XVID
Идентификатор кодека/Подсказка           : XviD
Продолжительность                        : 1 ч. 32 м.
Битрейт                                  : 1718 Кбит/сек
Ширина                                   : 720 пикселей
Высота                                   : 400 пикселей
Соотношение сторон                       : 16:9
Частота кадров                           : 24,000 кадра/сек
Цветовое пространство                    : YUV
Субдискретизация насыщенности            : 4:2:0
Битовая глубина                          : 8 бит
Тип развёртки                            : Прогрессивная
Метод сжатия                             : С потерями
Бит/(Пиксели*Кадры)                      : 0.249
Размер потока                            : 1,11 Гбайт (81%)
Библиотека кодирования                   : XviD 1.2.1 (UTC 2008-12-04)

Аудио
Идентификатор                            : 1
Формат                                   : AC-3
Формат/Информация                        : Audio Coding 3
Расширение режима                        : CM (complete main)
Параметр Endianness формата              : Big
Идентификатор кодека                     : 2000
Продолжительность                        : 1 ч. 32 м.
Вид битрейта                             : Постоянный
Битрейт                                  : 384 Кбит/сек
Каналы                                   : 6 каналов
Расположение каналов                     : Front: L C R, Side: L R, LFE
Частота                                  : 48,0 КГц
Метод сжатия                             : С потерями
Размер потока                            : 255 Мбайт (18%)
Выравнивание                             : Разделение по промежуткам
Продолжительность промежутка             : 42  мс. (1,00 видеокадр)
Время предзагрузки промежутка            : 500  мс.
picpicpicpicpic
Для увеличения картинки щелкните мышкой по превью

Этот торрент недоступен для скачивания без регистрации, однако доступен по публичной magnet-ссылке (источники с публичных трекеров). Перед использованием ссылки прочтите, пожалуйста Пользовательское соглашение, а также как можно дольше оставайтесь на раздаче! Для того, чтобы скачать сам торрент-файл (который видит больше источников), а также для того, чтобы поблагодарить релизера, вам необходимо зарегистрироваться. Если регистрироваться лень - вы можете также попробовать скачать релиз по нашим партнерским ссылкам ниже.

[underverse.su].t61299.torrent
Трекер: Зарегистрирован   [ 01.01.2016 09:12 ]  

Статус: T временная (by makkol at 01.01.2016 10:34)
Поблагодарили: пока никто не поблагодарил...
Тип торрента: публичный - доступные источники с открытых трекеров: 
Размер: 1,37 GB (занимает 0,31 DVDR, для записи нужно 1 болванка DVDR/RW)
 
 
Похожие темы
Форум Тема Автор Торрент Отв. Посл. сооб.
T Зарубежное кино [DVDRip, Low-Res HDRip, и т.д.] Superнянь / Babysitting (Николас Бенаму / Nicolas Benamou, Филипп Лашо / Philippe Lacheau) [2014 г., комедия, HDRip] Dub (звук с TS) + Original (Fre) 90ytr90
425 | 14

0 | 486

36

24.11.2014 19:29

T Зарубежное кино [DVDRip, Low-Res HDRip, и т.д.] Superнянь / Babysitting (Николас Бенаму / Nicolas Benamou, Филипп Лашо / Philippe Lacheau) [2014 г., комедия, BDRip-AVC] Dub (iTunes) + Eng + Sub (Rus, Fre) 90ytr90
1696 | 75

0 | 421

15

02.01.2015 14:49

T Зарубежное кино [DVDRip, Low-Res HDRip, и т.д.] Superнянь / Babysitting (Николас Бенаму / Nicolas Benamou, Филипп Лашо / Philippe Lacheau) [2014 г., комедия, HDRip] Dub (iTunes) 90ytr90
407 | 13

0 | 514

16

02.01.2015 14:56

T Зарубежное кино [DVDRip, Low-Res HDRip, и т.д.] Superнянь 2 / Babysitting 2 (Николас Бенаму / Nicolas Benamou, Филипп Лашо / Philippe Lacheau) [2015 г., комедия, WEB-DLRip] Dub (iTunes) 90ytr90
214 | 10

0 | 439

2

15.01.2016 18:22

T Зарубежное кино [HDDVDRip / BDRip / WEB-DL / HDTV 1080/720р] Superнянь / Babysitting (Николас Бенаму / Nicolas Benamou, Филипп Лашо / Philippe Lacheau) [2014 г., комедия, BDRip 720p] Dub (чистый звук) + Original (Fre) 90ytr90
384 | 27

1 | 914

28

05.12.2014 14:43

T Зарубежное кино [HDDVDRip / BDRip / WEB-DL / HDTV 1080/720р] Superнянь / Babysitting (Николас Бенаму / Nicolas Benamou, Филипп Лашо / Philippe Lacheau) [2014 г., комедия, BDRip 1080p] Dub (чистый звук) + Original (Fre) 90ytr90
43 | 1

0 | 928

41

02.12.2014 18:35

T Зарубежное кино [HDDVDRip / BDRip / WEB-DL / HDTV 1080/720р] Superнянь 2 / Babysitting 2 ( Николас Бенаму, Филипп Лашо) [2015 г., комедия, WEB-DL 1080p] Dub makkol
390 | 4

0 | 1434

102

01.01.2016 09:20

T Зарубежное кино [HDDVDRip / BDRip / WEB-DL / HDTV 1080/720р] Superнянь 2 / Babysitting 2 (Николас Бенаму / Nicolas Benamou, Филипп Лашо / Philippe Lacheau) [2015 г., комедия, WEB-DL 720p] Dub (iTunes) 90ytr90
209 | 4

0 | 469

13

15.01.2016 18:28


Яндекс.Метрика powered by Sphinx


В Н И М А Н И Е
Сайт не распространяет и не хранит электронные версии произведений, а лишь бесплатно и без коммерческой выгоды (не требуя взамен платы,
SMS и т.д.) предоставляет доступ к создаваемому пользователями каталогу ссылок на торрент-файлы, которые содержат только списки хеш-сумм.
Убедительная просьба с жалобами обращаться напрямую к пользователю, разместившему торрент файл.

Вверх