Loading...
Error

Спасение / Extraction (Стивен С. Миллер) (Extended cut) [2015 г., боевик, триллер, WEB-DLRip] Dub

Статистика раздачи
Размер:  1,37 GB   |    Зарегистрирован:  11 месяцев   |    Скачан:  40 раз

Полного источника не было: 15 дней

Сидов:  0  |  0 KB/s  ]   Личеров:  0  |  0 KB/s  ]

* - сиды/пиры с внешних источников

   
 
Автор Сообщение

makkol Пол:Муж

29-Дек-2015 22:38

Спасение / Extraction


Год выпуска: 2015
Жанр: боевик, триллер
Производство: Канада [Aperture Entertainment, Emmett/Furla Films, Oasis Films, Twirly Films Limited]
Режиссер: Стивен С. Миллер
В ролях: Брюс Уиллис, Келлан Латс, Джина Карано, Д.Б. Суини, Джошуа Микель, Стив Култер, Ден Билзерян, Хезер Йохансен, Роберт Мартин Стейнберг, Саммер Элтис
Сюжет фильма:
Группа террористов похищает бывшего оперативного агента ЦРУ, чтобы использовать его в своих корыстных целях. Не дождавшись помощи от правительства, его сын начинает собственную операцию по спасению отца и возвращению его домой…

  • Мировая премьера: 18 декабря 2015
  • Российская премьера: 24 декабря 2015


EXTENDED - Расширенная версия! Длиннее театральной на 7 минут.

Качество видео: WEB-DLRip

Продолжительность: 01:28:05
Формат: AVI
Видео: XviD, 720x304 (2.35:1), 25.000 fps, 1825 kbps
Аудио: русский, дублированный (iTunes), AC3 5.1, 48 kHz, 384 kbps

Код:

Формат                                   : AVI
Формат/Информация                        : Audio Video Interleave
Размер файла                             : 1,37 Гбайт
Продолжительность                        : 1 ч. 28 м.
Общий поток                              : 2219 Кбит/сек
Программа кодирования                    : VirtualDubMod 1.5.10.3 | www.virtualdub-fr.org || (build 2550/release)
Библиотека кодирования                   : VirtualDubMod build 2550/release

Видео
Идентификатор                            : 0
Формат                                   : MPEG-4 Visual
Профиль формата                          : Advanced Simple@L5
Параметр BVOP формата                    : 2
Параметр QPel формата                    : Нет
Параметр GMC формата                     : Без точки перехода
Параметр матрицы формата                 : Default (MPEG)
Идентификатор кодека                     : XVID
Идентификатор кодека/Подсказка           : XviD
Продолжительность                        : 1 ч. 28 м.
Битрейт                                  : 1825 Кбит/сек
Ширина                                   : 720 пикселей
Высота                                   : 304 пикселя
Соотношение сторон                       : 2,35:1
Частота кадров                           : 25,000 кадров/сек
Цветовое пространство                    : YUV
Субдискретизация насыщенности            : 4:2:0
Битовая глубина                          : 8 бит
Тип развёртки                            : Прогрессивная
Метод сжатия                             : С потерями
Бит/(Пиксели*Кадры)                      : 0.333
Размер потока                            : 1,12 Гбайт (82%)
Библиотека кодирования                   : XviD 1.2.1 (UTC 2008-12-04)

Аудио
Идентификатор                            : 1
Формат                                   : AC-3
Формат/Информация                        : Audio Coding 3
Расширение режима                        : CM (complete main)
Параметр Endianness формата              : Big
Идентификатор кодека                     : 2000
Продолжительность                        : 1 ч. 28 м.
Вид битрейта                             : Постоянный
Битрейт                                  : 384 Кбит/сек
Каналы                                   : 6 каналов
Расположение каналов                     : Front: L C R, Side: L R, LFE
Частота                                  : 48,0 КГц
Битовая глубина                          : 16 бит
Метод сжатия                             : С потерями
Размер потока                            : 242 Мбайт (17%)
Выравнивание                             : Разделение по промежуткам
Продолжительность промежутка             : 40  мс. (1,00 видеокадр)
Время предзагрузки промежутка            : 500  мс.
picpicpicpicpic
Для увеличения картинки щелкните мышкой по превью

Этот торрент недоступен для скачивания без регистрации, однако доступен по публичной magnet-ссылке (источники с публичных трекеров). Перед использованием ссылки прочтите, пожалуйста Пользовательское соглашение, а также как можно дольше оставайтесь на раздаче! Для того, чтобы скачать сам торрент-файл (который видит больше источников), а также для того, чтобы поблагодарить релизера, вам необходимо зарегистрироваться. Если регистрироваться лень - вы можете также попробовать скачать релиз по нашим партнерским ссылкам ниже.

[underverse.su].t61244.torrent
Трекер: Зарегистрирован   [ 29.12.2015 22:38 ]  

Статус: T временная (by makkol at 30.12.2015 23:13)
Поблагодарили: 1 человек
Тип торрента: публичный - доступные источники с открытых трекеров: 
Размер: 1,37 GB (занимает 0,31 DVDR, для записи нужно 1 болванка DVDR/RW)
 
 
Похожие темы
Форум Тема Автор Торрент Отв. Посл. сооб.
T Зарубежное кино [DVDRip, Low-Res HDRip, и т.д.] Спасение / The Salvation (Кристиан Левринг) [2014 г., Драма, Вестерн, DVDRip] VO (RUS, R.A.I.M.) + Subs (SWE) Ведьмочка
0 | 1

0 | 916

22

14.10.2014 23:22

Зарубежное кино [DVDRip, Low-Res HDRip, и т.д.] Спасение / The Salvation (Кристиан Левринг / Kristian Levring) [2014 г., драма, вестерн, HDRip] VO (Lord32x) 90ytr90
4 | 0

0 | 326

8

24.11.2014 08:01

# Зарубежное кино [DVDRip, Low-Res HDRip, и т.д.] Спасение / The Salvation (Кристиан Левринг / Kristian Levring) [2014 г., драма, вестерн, BDRip 720p] VO (Lord32x) + Original (Eng) + Sub (Rus, Eng) 90ytr90
0 | 0

0 | 377

7

24.11.2014 08:10

Зарубежное кино [DVDRip, Low-Res HDRip, и т.д.] Спасение / The Salvation (Кристиан Левринг / Kristian Levring) [2014 г., драма, вестерн, HDRip] AVO (Матвеев) 90ytr90
9 | 2

0 | 683

17

28.11.2014 13:59

Зарубежное кино [DVDRip, Low-Res HDRip, и т.д.] Спасение / The Salvation (Кристиан Левринг / Kristian Levring) [2014 г., драма, вестерн, HDRip] DVO + AVO (Матвеев) + Original + Sub (Rus,Eng) Паукан
2 | 0

0 | 610

6

20.01.2015 16:18

Зарубежное кино [DVDRip, Low-Res HDRip, и т.д.] Спасение / The Salvation (Кристиан Левринг / Kristian Levring) [2014 г., драма, вестерн, HDRip-AVC] AVO (Сербин) + Original (Eng) + Sub (Rus, Eng) 90ytr90
26 | 1

0 | 328

2

11.02.2015 19:07

Зарубежное кино [DVDRip, Low-Res HDRip, и т.д.] Спасение / The Salvation (Кристиан Левринг) [2014 г., драма, вестерн, HDRip] Dub Паукан
2 | 0

0 | 791

33

28.05.2015 11:16

Зарубежное кино [DVDRip, Low-Res HDRip, и т.д.] Спасение / Extraction (Стивен С. Миллер) [2015 г., боевик, триллер, WEB-DLRip] MVO + Original makkol
31 | 0

0 | 8300

71

23.12.2015 22:55

T Зарубежное кино [DVDRip, Low-Res HDRip, и т.д.] Спасение / Extraction (Стивен С. Миллер / Steven C. Miller) [2015 г., триллер, BDRip-AVC] Dub (iTunes) + Sub (Rus) 90ytr90
22 | 0

0 | 967

7

15.02.2016 08:23

T Зарубежное кино [DVDRip, Low-Res HDRip, и т.д.] Спасение / Extraction (Стивен С. Миллер / Steven C. Miller) [2015 г., триллер, BDRip-AVC] Dub (iTunes) + Original (Eng) + Sub (Rus, Eng) 90ytr90
5 | 0

0 | 308

5

15.02.2016 18:39


Яндекс.Метрика powered by Sphinx


В Н И М А Н И Е
Сайт не распространяет и не хранит электронные версии произведений, а лишь бесплатно и без коммерческой выгоды (не требуя взамен платы,
SMS и т.д.) предоставляет доступ к создаваемому пользователями каталогу ссылок на торрент-файлы, которые содержат только списки хеш-сумм.
Убедительная просьба с жалобами обращаться напрямую к пользователю, разместившему торрент файл.

Вверх