Loading...
Error

Плохие соседи по комнате / Bad Roomies (Джейсон Шнель) [2015 г., комедия, WEB-DLRip] DVO

Статистика раздачи
Размер:  1,36 GB   |    Зарегистрирован:  11 месяцев   |    Скачан:  39 раз

Полного источника не было: 9 дней

Сидов:  0  |  0 KB/s  ]   Личеров:  0  |  0 KB/s  ]

* - сиды/пиры с внешних источников

   
 
Автор Сообщение

makkol Пол:Муж

29-Дек-2015 15:00

Плохие соседи по комнате / Bad Roomies


Год выпуска: 2015
Жанр: комедия
Производство: США [Eastside Films]
Режиссер: Джейсон Шнель
В ролях: Патрик Ренна, Томми Савас, Энни Монро, Джеки Тон, Пейдж Кеннеди, Кайл Ховард, Джорди Мастерсон, Кристофер Мастерсон, Линси Бартилсон, Эрик Памфри
Сюжет фильма:
Когда у двух друзей, которые живут в одной квартире, освобождается лишняя комната, они решили найти себе нового соседа. К этому делу парни подошли ответственно и устроили настоящий кастинг. Желающих поселиться в их квартире было достаточно, но друзья остановились на симпатичной девушке. Этот выбор стал роковым. Ведь отныне их жизнь никогда не будет прежней. Оба друга без ума от новой соседки. Но на ком девушка остановит свой выбор?

  • Мировая премьера: 1 декабря 2015


Качество видео: WEB-DLRip

Продолжительность: 01:33:40
Формат: AVI
Видео: XviD, 720x304 (2.35:1), 23.976 fps, 1935 kbps
Аудио: русский, любительский двухголосый закадровый (Parovoz Production), AC3 2.0, 48 kHz, 128 kbps

Внимание! Присутствуют голосовые и текстовые вставки рекламы!

Код:

Общее
Формат                                   : AVI
Формат/Информация                        : Audio Video Interleave
Размер файла                             : 1,36 Гбайт
Продолжительность                        : 1 ч. 33 м.
Общий поток                              : 2073 Кбит/сек
Программа кодирования                    : VirtualDubMod 1.5.10.3 | www.virtualdub-fr.org || (build 2550/release)
Библиотека кодирования                   : VirtualDubMod build 2550/release

Видео
Идентификатор                            : 0
Формат                                   : MPEG-4 Visual
Профиль формата                          : Advanced Simple@L5
Параметр BVOP формата                    : 2
Параметр QPel формата                    : Нет
Параметр GMC формата                     : Без точки перехода
Параметр матрицы формата                 : Default (MPEG)
Идентификатор кодека                     : XVID
Идентификатор кодека/Подсказка           : XviD
Продолжительность                        : 1 ч. 33 м.
Битрейт                                  : 1935 Кбит/сек
Ширина                                   : 720 пикселей
Высота                                   : 304 пикселя
Соотношение сторон                       : 2,35:1
Частота кадров                           : 23,976 кадра/сек
Цветовое пространство                    : YUV
Субдискретизация насыщенности            : 4:2:0
Битовая глубина                          : 8 бит
Тип развёртки                            : Прогрессивная
Метод сжатия                             : С потерями
Бит/(Пиксели*Кадры)                      : 0.369
Размер потока                            : 1,27 Гбайт (93%)
Библиотека кодирования                   : XviD 1.2.1 (UTC 2008-12-04)

Аудио
Идентификатор                            : 1
Формат                                   : AC-3
Формат/Информация                        : Audio Coding 3
Расширение режима                        : CM (complete main)
Параметр Endianness формата              : Big
Идентификатор кодека                     : 2000
Продолжительность                        : 1 ч. 33 м.
Вид битрейта                             : Постоянный
Битрейт                                  : 128 Кбит/сек
Каналы                                   : 2 канала
Расположение каналов                     : Front: L R
Частота                                  : 48,0 КГц
Битовая глубина                          : 16 бит
Метод сжатия                             : С потерями
Задержка видео                           : 26 мс.
Размер потока                            : 85,8 Мбайт (6%)
Выравнивание                             : Разделение по промежуткам
Продолжительность промежутка             : 42  мс. (1,00 видеокадр)
Время предзагрузки промежутка            : 500  мс.
picpicpicpicpic
Для увеличения картинки щелкните мышкой по превью

Этот торрент недоступен для скачивания без регистрации, однако доступен по публичной magnet-ссылке (источники с публичных трекеров). Перед использованием ссылки прочтите, пожалуйста Пользовательское соглашение, а также как можно дольше оставайтесь на раздаче! Для того, чтобы скачать сам торрент-файл (который видит больше источников), а также для того, чтобы поблагодарить релизера, вам необходимо зарегистрироваться. Если регистрироваться лень - вы можете также попробовать скачать релиз по нашим партнерским ссылкам ниже.

[underverse.su].t61226.torrent
Трекер: Зарегистрирован   [ 29.12.2015 15:00 ]  

Статус: проверено (by makkol at 30.12.2015 23:11)
Поблагодарили: пока никто не поблагодарил...
Тип торрента: публичный - доступные источники с открытых трекеров: 
Размер: 1,36 GB (занимает 0,31 DVDR, для записи нужно 1 болванка DVDR/RW)
 
 
Похожие темы
Форум Тема Автор Торрент Отв. Посл. сооб.
Зарубежное кино [HDDVDRip / BDRip / WEB-DL / HDTV 1080/720р] Плохие соседи по комнате / Bad Roomies (Джейсон Шнель) [2015 г., комедия, WEB-DL 720p] DVO + Original makkol
1 | 0

0 | 693

20

30.12.2015 13:41


Яндекс.Метрика powered by Sphinx


В Н И М А Н И Е
Сайт не распространяет и не хранит электронные версии произведений, а лишь бесплатно и без коммерческой выгоды (не требуя взамен платы,
SMS и т.д.) предоставляет доступ к создаваемому пользователями каталогу ссылок на торрент-файлы, которые содержат только списки хеш-сумм.
Убедительная просьба с жалобами обращаться напрямую к пользователю, разместившему торрент файл.

Вверх