Loading...
Error

Убийца / Sicario (Дени Вильнёв) [2015 г., боевик, триллер, драма, криминал, детектив, HDRip] Dub (Line) + Original

Статистика раздачи
Размер:  2,08 GB   |    Зарегистрирован:  11 месяцев   |    Скачан:  80 раз

Полного источника не было: 4 дня

Сидов:  0  |  0 KB/s  ]   Личеров:  0  |  0 KB/s  ]

* - сиды/пиры с внешних источников

   
 
Автор Сообщение

makkol Пол:Муж

24-Дек-2015 22:28

Убийца / Sicario
«Границы условны. Возмездие реально.»


Год выпуска: 2015
Жанр: боевик, триллер, драма, криминал, детектив
Производство: США [Black Label Media, Lionsgate, Thunder Road]
Режиссер: Дени Вильнёв
В ролях: Эмили Блант, Бенисио Дель Торо, Джош Бролин, Виктор Гарбер, Джон Бернтал, Дэниэл Калуя, Джеффри Донован, Рауль Трухильо, Хулио Седильо, Хэнк Роджерсон
Сюжет фильма:
На американо-мексиканской границе женщина-полицейский сопровождает двух рейнджеров, которые преследуют наркобарона. Она не подозревает, что по ту сторону границы есть тайное место, где не действуют никакие законы и царят насилие и разврат.

  • Мировая премьера: 19 мая 2015
  • Российская премьера: 26 ноября 2015


Качество видео: HDRip

Продолжительность: 02:01:20
Формат: AVI
Видео: XviD, 720x304 (2.35:1), 23.976 fps, 1857 kbps
Аудио #1: русский, дублированный (чистый звук), AC3 2.0, 48 kHz, 192 kbps
Аудио #2: английский, оригинал, AC3 5.1, 48 kHz, 384 kbps

Внимание! Присутствуют вставки голосовой и текстовой рекламы казино!

Код:

Общее
Формат                                   : AVI
Формат/Информация                        : Audio Video Interleave
Профиль формата                          : OpenDML
Размер файла                             : 2,08 Гбайт
Продолжительность                        : 2 ч. 1 м.
Общий поток                              : 2452 Кбит/сек
Программа кодирования                    : VirtualDubMod 1.5.10.2 (build 2542/release)
Библиотека кодирования                   : VirtualDubMod build 2542/release

Видео
Идентификатор                            : 0
Формат                                   : MPEG-4 Visual
Профиль формата                          : Advanced Simple@L5
Параметр BVOP формата                    : 2
Параметр QPel формата                    : Нет
Параметр GMC формата                     : Без точки перехода
Параметр матрицы формата                 : Default (MPEG)
Идентификатор кодека                     : XVID
Идентификатор кодека/Подсказка           : XviD
Продолжительность                        : 2 ч. 1 м.
Битрейт                                  : 1857 Кбит/сек
Ширина                                   : 720 пикселей
Высота                                   : 304 пикселя
Соотношение сторон                       : 2,35:1
Частота кадров                           : 23,976 кадра/сек
Цветовое пространство                    : YUV
Субдискретизация насыщенности            : 4:2:0
Битовая глубина                          : 8 бит
Тип развёртки                            : Прогрессивная
Метод сжатия                             : С потерями
Бит/(Пиксели*Кадры)                      : 0.354
Размер потока                            : 1,57 Гбайт (76%)
Библиотека кодирования                   : XviD 1.2.1 (UTC 2008-12-04)

Аудио #1
Идентификатор                            : 1
Формат                                   : AC-3
Формат/Информация                        : Audio Coding 3
Расширение режима                        : CM (complete main)
Параметр Endianness формата              : Big
Идентификатор кодека                     : 2000
Продолжительность                        : 2 ч. 1 м.
Вид битрейта                             : Постоянный
Битрейт                                  : 192 Кбит/сек
Каналы                                   : 2 канала
Расположение каналов                     : Front: L R
Частота                                  : 48,0 КГц
Метод сжатия                             : С потерями
Задержка видео                           : 9 мс.
Размер потока                            : 167 Мбайт (8%)
Выравнивание                             : Разделение по промежуткам
Продолжительность промежутка             : 42  мс. (1,00 видеокадр)
Время предзагрузки промежутка            : 500  мс.

Аудио #2
Идентификатор                            : 2
Формат                                   : AC-3
Формат/Информация                        : Audio Coding 3
Расширение режима                        : CM (complete main)
Параметр Endianness формата              : Big
Идентификатор кодека                     : 2000
Продолжительность                        : 2 ч. 1 м.
Вид битрейта                             : Постоянный
Битрейт                                  : 384 Кбит/сек
Каналы                                   : 6 каналов
Расположение каналов                     : Front: L C R, Side: L R, LFE
Частота                                  : 48,0 КГц
Метод сжатия                             : С потерями
Задержка видео                           : 9 мс.
Размер потока                            : 333 Мбайт (16%)
Выравнивание                             : Разделение по промежуткам
Продолжительность промежутка             : 42  мс. (1,00 видеокадр)
Время предзагрузки промежутка            : 500  мс.
picpicpicpicpic
Для увеличения картинки щелкните мышкой по превью

Этот торрент недоступен для скачивания без регистрации, однако доступен по публичной magnet-ссылке (источники с публичных трекеров). Перед использованием ссылки прочтите, пожалуйста Пользовательское соглашение, а также как можно дольше оставайтесь на раздаче! Для того, чтобы скачать сам торрент-файл (который видит больше источников), а также для того, чтобы поблагодарить релизера, вам необходимо зарегистрироваться. Если регистрироваться лень - вы можете также попробовать скачать релиз по нашим партнерским ссылкам ниже.

[underverse.su].t61099.torrent
Трекер: Зарегистрирован   [ 24.12.2015 22:28 ]  

Статус: T временная (by makkol at 25.12.2015 23:24)
Поблагодарили: 2 человека
Тип торрента: публичный - доступные источники с открытых трекеров: 
Размер: 2,08 GB (занимает 0,48 DVDR, для записи нужно 1 болванка DVDR/RW)
 
 
Похожие темы
Форум Тема Автор Торрент Отв. Посл. сооб.
T Зарубежное кино [DVDRip, Low-Res HDRip, и т.д.] Убийца / Sicario (Дени Вильнёв) [2015 г., боевик, триллер, драма, криминал, детектив, HDRip] Dub makkol
1 | 0

0 | 474

14

16.03.2016 10:54

T Зарубежное кино [DVDRip, Low-Res HDRip, и т.д.] Убийца / Sicario (Дени Вильнёв) [2015 г., боевик, триллер, драма, криминал, детектив, HDRip] Dub + Original makkol
0 | 0

0 | 434

7

16.03.2016 11:04

T Зарубежное кино [DVDRip, Low-Res HDRip, и т.д.] Убийца / Sicario (Дени Вильнёв / Denis Villeneuve) [2015 г., боевик, триллер, драма, криминал, детектив, HDRip] Dub/AVO (чистый звук) + AVO (Есарев, без цензуры) 90ytr90
30 | 1

0 | 622

26

09.01.2016 15:23

Зарубежное кино [DVDRip, Low-Res HDRip, и т.д.] Убийца / Sicario (Дени Вильнёв / Denis Villeneuve) [2015 г., боевик, триллер, драма, криминал, детектив, BDRip] AVO (Матвеев, без цензуры) 90ytr90
24 | 0

0 | 723

19

09.01.2016 16:03

Зарубежное кино [DVDRip, Low-Res HDRip, и т.д.] Убийца / Sicario (Дени Вильнёв / Denis Villeneuve) [2015 г., боевик, триллер, драма, криминал, детектив, BDRip-AVC] AVO (Есарев, цензурный) + Original (Eng) + Sub (Eng) 90ytr90
7 | 0

0 | 755

13

09.01.2016 16:39

T Зарубежное кино [DVDRip, Low-Res HDRip, и т.д.] Убийца / Sicario (Дени Вильнёв / Denis Villeneuve) [2015 г., боевик, триллер, драма, криминал, детектив, HDRip] Dub/AVO (чистый звук) 90ytr90
270 | 2

0 | 587

29

23.01.2016 12:37

Зарубежное кино [DVDRip, Low-Res HDRip, и т.д.] Убийца / Sicario (Дени Вильнёв / Denis Villeneuve) [2015 г., боевик, триллер, драма, криминал, детектив, НDRip] AVO (Есарев, без цензуры) 90ytr90
64 | 0

0 | 413

8

23.01.2016 14:00

T Зарубежное кино [DVDRip, Low-Res HDRip, и т.д.] Убийца / Sicario (Дени Вильнёв / Denis Villeneuve) [2015 г., боевик, триллер, драма, криминал, детектив, BDRip-AVC] Dub (iTunes) + Sub (Rus) 90ytr90
21 | 1

0 | 537

2

27.08.2016 06:56

T Зарубежное кино [DVDRip, Low-Res HDRip, и т.д.] Убийца / Sicario (Дени Вильнёв / Denis Villeneuve) [2015 г., боевик, триллер, драма, криминал, детектив, BDRip-AVC] Dub (iTunes) + Original (Eng) + Sub (Rus, Eng) 90ytr90
47 | 3

0 | 590

10

27.08.2016 07:13

Зарубежное кино HQ Убийца / Sicario (Дени Вильнёв / Denis Villeneuve) [2015 г., боевик, триллер, драма, криминал, детектив, BDRip] Rus Dub [iTunes] HQ Underverse HQ Underverse
5 | 0

0 | 873

9

22.06.2016 13:13


Яндекс.Метрика powered by Sphinx


В Н И М А Н И Е
Сайт не распространяет и не хранит электронные версии произведений, а лишь бесплатно и без коммерческой выгоды (не требуя взамен платы,
SMS и т.д.) предоставляет доступ к создаваемому пользователями каталогу ссылок на торрент-файлы, которые содержат только списки хеш-сумм.
Убедительная просьба с жалобами обращаться напрямую к пользователю, разместившему торрент файл.

Вверх