Loading...
Error

Омерзительная восьмерка / The Hateful Eight (Квентин Тарантино) [2015 г., вестерн, DVDScr] MVO

Статистика раздачи
Размер:  2,05 GB   |    Зарегистрирован:  11 месяцев   |    Скачан:  344 раза
Сидов:  2  |  0 KB/s  ]   Личеров:  0  |  0 KB/s  ]

* - сиды/пиры с внешних источников

   
 
Автор Сообщение

makkol Пол:Муж

24-Дек-2015 21:47

Омерзительная восьмерка / The Hateful Eight
«Без хорошей причины сюда не лезут»


Год выпуска: 2015
Жанр: вестерн
Производство: США [The Weinstein Company LLC]
Режиссер: Квентин Тарантино
В ролях: Курт Расселл, Сэмюэл Л. Джексон, Тим Рот, Майкл Мэдсен, Дженнифер Джейсон Ли, Ченнинг Татум, Уолтон Гоггинс, Зои Белл, Брюс Дерн, Демиан Бишир
Сюжет фильма:
США после Гражданской войны. Легендарный охотник за головами Джон Рут по кличке Вешатель конвоирует заключенную. По пути к ним прибивается еще один охотник. Снежная буря вынуждает всех троих искать укрытие в лавке на отшибе, где уже расположилась весьма пестрая компания: генерал, шериф, мексиканец, француз и ковбой… И один из них — не тот, за кого себя выдает.

  • Мировая премьера: 7 декабря 2015
  • Российская премьера: 14 января 2016


Качество видео: DVDScr

Продолжительность: 02:47:49
Формат: AVI
Видео: XviD, 720x256, 29.970 fps, 1419 kbps
Аудио: русский, любительский многоголосый закадровый (ColdFilm), AC3 2.0, 48 kHz, 256 kbps

Код:

Размер файла                             : 2,05 Гбайт
Продолжительность                        : 2 ч. 47 м.
Общий поток                              : 1753 Кбит/сек
Программа кодирования                    : VirtualDubMod 1.5.10.2 (build 2540/release)
Библиотека кодирования                   : VirtualDubMod build 2540/release

Видео
Идентификатор                            : 0
Формат                                   : MPEG-4 Visual
Профиль формата                          : Advanced Simple@L5
Параметр BVOP формата                    : 2
Параметр QPel формата                    : Нет
Параметр GMC формата                     : Без точки перехода
Параметр матрицы формата                 : Default (MPEG)
Идентификатор кодека                     : XVID
Идентификатор кодека/Подсказка           : XviD
Продолжительность                        : 2 ч. 47 м.
Битрейт                                  : 1419 Кбит/сек
Ширина                                   : 720 пикселей
Высота                                   : 256 пикселей
Соотношение сторон                       : 2,813
Частота кадров                           : 29,970 (30000/1001) кадров/сек
Цветовое пространство                    : YUV
Субдискретизация насыщенности            : 4:2:0
Битовая глубина                          : 8 бит
Тип развёртки                            : Прогрессивная
Метод сжатия                             : С потерями
Бит/(Пиксели*Кадры)                      : 0.257
Размер потока                            : 1,66 Гбайт (81%)
Библиотека кодирования                   : XviD 1.2.1 (UTC 2008-12-04)

Аудио
Идентификатор                            : 1
Формат                                   : AC-3
Формат/Информация                        : Audio Coding 3
Расширение режима                        : CM (complete main)
Параметр Endianness формата              : Big
Идентификатор кодека                     : 2000
Продолжительность                        : 2 ч. 47 м.
Вид битрейта                             : Постоянный
Битрейт                                  : 256 Кбит/сек
Каналы                                   : 2 канала
Расположение каналов                     : Front: L R
Частота                                  : 48,0 КГц
Частота кадров                           : 31,250 кадров/сек (1536 spf)
Метод сжатия                             : С потерями
Размер потока                            : 307 Мбайт (15%)
Выравнивание                             : Разделение по промежуткам
picpicpicpicpic
Для увеличения картинки щелкните мышкой по превью

Этот торрент недоступен для скачивания без регистрации, однако доступен по публичной magnet-ссылке (источники с публичных трекеров). Перед использованием ссылки прочтите, пожалуйста Пользовательское соглашение, а также как можно дольше оставайтесь на раздаче! Для того, чтобы скачать сам торрент-файл (который видит больше источников), а также для того, чтобы поблагодарить релизера, вам необходимо зарегистрироваться. Если регистрироваться лень - вы можете также попробовать скачать релиз по нашим партнерским ссылкам ниже.

[underverse.su].t61096.torrent
Трекер: Зарегистрирован   [ 24.12.2015 21:47 ]  

Статус: проверено (by makkol at 25.12.2015 23:22)
Поблагодарили: 7 человек
Тип торрента: публичный - доступные источники с открытых трекеров: 
Размер: 2,05 GB (занимает 0,47 DVDR, для записи нужно 1 болванка DVDR/RW)
 
 
Похожие темы
Форум Тема Автор Торрент Отв. Посл. сооб.
Зарубежное кино [DVDRip, Low-Res HDRip, и т.д.] Омерзительная восьмерка / The Hateful Eight (Квентин Тарантино) [2015 г., вестерн, DVDScr] DVO makkol
12 | 0

0 | 2898

198

22.12.2015 23:20

Зарубежное кино [DVDRip, Low-Res HDRip, и т.д.] Омерзительная восьмерка / The Hateful Eight (Квентин Тарантино) [2015 г., вестерн, DVDScr] AVO (Матвеев) 90ytr90
163 | 2

2 | 3516

235

19.01.2016 16:32

Зарубежное кино [DVDRip, Low-Res HDRip, и т.д.] Омерзительная восьмерка / The Hateful Eight (Квентин Тарантино / Quentin Tarantino) [2015 г., вестерн, HDRip] AVO (Есарев) 90ytr90
48 | 0

0 | 514

14

05.03.2016 18:37

Зарубежное кино [DVDRip, Low-Res HDRip, и т.д.] Омерзительная восьмерка / The Hateful Eight (Квентин Тарантино / Quentin Tarantino) [2015 г., вестерн, HDRip] AVO (Есарев) 90ytr90
16 | 0

0 | 525

7

05.03.2016 19:19

Зарубежное кино [DVDRip, Low-Res HDRip, и т.д.] Омерзительная восьмерка / The Hateful Eight (Квентин Тарантино / Quentin Tarantino) [2015 г., вестерн, HDRip] AVO (Матвеев) + Original (Eng) + Sub (Rus, Eng) 90ytr90
48 | 0

0 | 562

15

06.03.2016 07:02

Зарубежное кино [DVDRip, Low-Res HDRip, и т.д.] Омерзительная восьмерка / The Hateful Eight (Квентин Тарантино / Quentin Tarantino) [2015 г., вестерн, HDRip-AVC] AVO (Есарев) + Sub (Rus, Eng) 90ytr90
11 | 4

0 | 338

8

08.03.2016 14:36

Зарубежное кино [DVDRip, Low-Res HDRip, и т.д.] Омерзительная восьмерка / The Hateful Eight (Квентин Тарантино / Quentin Tarantino) [2015 г., вестерн, BDRip] Dub + hardsub (Rus) 90ytr90
232 | 4

0 | 872

4

12.05.2016 15:31

Зарубежное кино [DVDRip, Low-Res HDRip, и т.д.] Омерзительная восьмерка / The Hateful Eight (Квентин Тарантино / Quentin Tarantino) [2015 г., вестерн, BDRip-AVC] Dub + Sub (Rus, Eng) 90ytr90
20 | 0

0 | 880

4

12.05.2016 15:40

Зарубежное кино [DVDRip, Low-Res HDRip, и т.д.] Омерзительная восьмерка / The Hateful Eight (Квентин Тарантино / Quentin Tarantino) [2015 г., вестерн, BDRip-AVC] Dub + Original (Eng) + Sub (Rus, Eng) 90ytr90
461 | 11

0 | 940

12

12.05.2016 15:58

Зарубежное кино [DVDRip, Low-Res HDRip, и т.д.] Омерзительная восьмерка / The Hateful Eight (Квентин Тарантино / Quentin Tarantino) [2015 г., вестерн, BDRip] Dub 90ytr90
23 | 3

0 | 658

4

19.05.2016 08:29

DrBond Пол:Муж

02-Янв-2016 13:09

Я как-то даже и не сомневался, что фильм будет очень интересным. Правда трёхчасовое зрелище немного утомляет. Но с другой стороны, ожидание развязки, подозрения и догадки накаляют обстановку до предела.
Тарантино умеет снимать, это его удел - обеспечивать публику дурманящим запахом крови. В очередной раз он доказал, что мастер своего дела.
Удивил и Курт Расселл. Я думал он на пенсии давно, он, нет. Умеет дедуган играть крутого мена.
В общем кино стоящее - однозначно качать и смотреть. Детишек только уберите от экрана, а то там немного Тарантиновсеого извращённого *мурзилка* есть:)))) =@

bull601 Пол:Муж

03-Янв-2016 14:58

:Yahoo!:

s_rustam Пол:Муж

03-Янв-2016 19:04

Фильм однозначно в копилку! Тарантино, и этим всё сказано!

F_L Пол:Муж

05-Янв-2016 07:19

Да, Квентин в очередной раз ЖЖЁТ. Качать, смотреть. Время будет не зря потеряно.

Яндекс.Метрика powered by Sphinx


В Н И М А Н И Е
Сайт не распространяет и не хранит электронные версии произведений, а лишь бесплатно и без коммерческой выгоды (не требуя взамен платы,
SMS и т.д.) предоставляет доступ к создаваемому пользователями каталогу ссылок на торрент-файлы, которые содержат только списки хеш-сумм.
Убедительная просьба с жалобами обращаться напрямую к пользователю, разместившему торрент файл.

Вверх