Loading...
Error

Мой друг Дед Мороз / Le pere Noel (Александр Коффре) [2014 г., комедия, HDRip] MVO

Статистика раздачи
Размер:  1,36 GB   |    Зарегистрирован:  11 месяцев   |    Скачан:  25 раз

Полного источника не было: 5 дней

Сидов:  0  |  0 KB/s  ]   Личеров:  0  |  0 KB/s  ]

* - сиды/пиры с внешних источников

   
 
Автор Сообщение

makkol Пол:Муж

24-Дек-2015 12:10

Мой друг Дед Мороз / Le père Noël


Год выпуска: 2014
Жанр: комедия
Производство: Франция , Бельгия [Atitlan, Compagnie Cinématographique, La, Kinology, Le Tax Shelter du Gouvernement Fédéral de Belgique, M6, M6 Films]
Режиссер: Александр Коффре
В ролях: Тахар Рахим, Виктор Кабаль, Аннелиз Эм, Микаэль Абитбуль, Филипп Реббо, Амели Гленн, Жан Франсуа Кэйри, Джибрил Гуйе, Сатья Дюсаги
Сюжет фильма:
В ночь на Рождество 6-летний Антуан загадал только одно желание – покататься в санях Санта-Клауса между звёзд, рассыпанных по небу. И тут, словно по мановению волшебной палочки, на балконе появляется Санта. Антуан был слишком удивлён, чтобы признать в нём бородатого грабителя, переодетого в новогодний костюм, который отправился по парижским квартирам в поисках богатств.

  • Мировая премьера: 4 декабря 2014
  • Российская премьера: 24 декабря 2015


Качество видео: HDRip

Продолжительность: 01:18:11
Формат: AVI
Видео: XviD, 720x304 (2.35:1), 25.000 fps, 2098 kbps
Аудио: русский, профессиональный многоголосый закадровый (iTunes), AC3 5.1, 48 kHz, 384 kbps

Внимание! Присутствуют вставки голосовой и текстовой рекламы казино!

Код:

Общее
Полное имя                               : M0y.DruG.DeD.m0r0z.2014.P.HDRip.1400MB.avi
Формат                                   : AVI
Формат/Информация                        : Audio Video Interleave
Размер файла                             : 1,36 Гбайт
Продолжительность                        : 1 ч. 18 м.
Общий поток                              : 2492 Кбит/сек
Программа кодирования                    : VirtualDubMod 1.5.10.3 | www.virtualdub-fr.org || (build 2550/release)
Библиотека кодирования                   : VirtualDubMod build 2550/release

Видео
Идентификатор                            : 0
Формат                                   : MPEG-4 Visual
Профиль формата                          : Advanced Simple@L5
Параметр BVOP формата                    : 2
Параметр QPel формата                    : Нет
Параметр GMC формата                     : Без точки перехода
Параметр матрицы формата                 : Default (MPEG)
Идентификатор кодека                     : XVID
Идентификатор кодека/Подсказка           : XviD
Продолжительность                        : 1 ч. 18 м.
Битрейт                                  : 2098 Кбит/сек
Ширина                                   : 720 пикселей
Высота                                   : 304 пикселя
Соотношение сторон                       : 2,35:1
Частота кадров                           : 25,000 кадров/сек
Цветовое пространство                    : YUV
Субдискретизация насыщенности            : 4:2:0
Битовая глубина                          : 8 бит
Тип развёртки                            : Прогрессивная
Метод сжатия                             : С потерями
Бит/(Пиксели*Кадры)                      : 0.383
Размер потока                            : 1,15 Гбайт (84%)
Библиотека кодирования                   : XviD 1.2.1 (UTC 2008-12-04)

Аудио
Идентификатор                            : 1
Формат                                   : AC-3
Формат/Информация                        : Audio Coding 3
Расширение режима                        : CM (complete main)
Параметр Endianness формата              : Big
Идентификатор кодека                     : 2000
Продолжительность                        : 1 ч. 18 м.
Вид битрейта                             : Постоянный
Битрейт                                  : 384 Кбит/сек
Каналы                                   : 6 каналов
Расположение каналов                     : Front: L C R, Side: L R, LFE
Частота                                  : 48,0 КГц
Метод сжатия                             : С потерями
Размер потока                            : 215 Мбайт (15%)
Выравнивание                             : Разделение по промежуткам
Продолжительность промежутка             : 40  мс. (1,00 видеокадр)
Время предзагрузки промежутка            : 500  мс.
picpicpicpicpic
Для увеличения картинки щелкните мышкой по превью

Этот торрент недоступен для скачивания без регистрации, однако доступен по публичной magnet-ссылке (источники с публичных трекеров). Перед использованием ссылки прочтите, пожалуйста Пользовательское соглашение, а также как можно дольше оставайтесь на раздаче! Для того, чтобы скачать сам торрент-файл (который видит больше источников), а также для того, чтобы поблагодарить релизера, вам необходимо зарегистрироваться. Если регистрироваться лень - вы можете также попробовать скачать релиз по нашим партнерским ссылкам ниже.

[underverse.su].t61078.torrent
Трекер: Зарегистрирован   [ 24.12.2015 12:10 ]  

Статус: T временная (by makkol at 25.12.2015 23:18)
Поблагодарили: пока никто не поблагодарил...
Тип торрента: публичный - доступные источники с открытых трекеров: 
Размер: 1,36 GB (занимает 0,31 DVDR, для записи нужно 1 болванка DVDR/RW)
 
 
Похожие темы
Форум Тема Автор Торрент Отв. Посл. сооб.
T Зарубежное кино [HDDVDRip / BDRip / WEB-DL / HDTV 1080/720р] Мой друг Дед Мороз / Le pere Noel (Александр Коффре) [2014 г., комедия, BDRip 1080p] MVO + Original makkol
0 | 0

0 | 425

19

24.12.2015 13:26


Яндекс.Метрика powered by Sphinx


В Н И М А Н И Е
Сайт не распространяет и не хранит электронные версии произведений, а лишь бесплатно и без коммерческой выгоды (не требуя взамен платы,
SMS и т.д.) предоставляет доступ к создаваемому пользователями каталогу ссылок на торрент-файлы, которые содержат только списки хеш-сумм.
Убедительная просьба с жалобами обращаться напрямую к пользователю, разместившему торрент файл.

Вверх