Loading...
Error

Дровосек / Lumberjack Man (Джош Беар) [2015 г., ужасы, комедия, WEB-DLRip] VO

Статистика раздачи
Размер:  1,36 GB   |    Зарегистрирован:  11 месяцев   |    Скачан:  18 раз

Полного источника не было: 2 месяца 20 дней

Сидов:  0  |  0 KB/s  ]   Личеров:  0  |  0 KB/s  ]

* - сиды/пиры с внешних источников

   
 
Автор Сообщение

makkol Пол:Муж

20-Дек-2015 22:49

Дровосек / Lumberjack Man


Год выпуска: 2015
Жанр: ужасы, комедия
Производство: США [Madisonian Films]
Режиссер: Джош Беар
В ролях: Майкл Мэдсен, Брина Паленсиа, Кристофер Сабат, Рэй Кроуфорд, Алекс Добренко, Сиара Флинн, Зэк Герерро, Чейз Джолиет
Сюжет фильма:
В то время как обитатели религиозного лагеря Good Friends готовятся к ежегодному весеннему празднику, демонический дровосек восстает из глубин ада и, ведомый жаждой мести, готовится приготовить из своих жертв блины с соусом из их крови.

  • Мировая премьера: 16 октября 2015


Качество видео: WEB-DLRip

Продолжительность: 01:44:28
Формат: AVI
Видео: XviD, 720x304 (2.35:1), 23.976 fps, 1668 kbps
Аудио: русский, любительский одноголосый закадровый (Хихикающий доктор), MP3 2.0, 44.1 kHz, 192 kbps

Код:

Общее
Формат                                   : AVI
Формат/Информация                        : Audio Video Interleave
Профиль формата                          : OpenDML
Настройки формата                        : rec
Размер файла                             : 1,36 Гбайт
Продолжительность                        : 1 ч. 44 м.
Общий поток                              : 1864 Кбит/сек
Программа кодирования                    : AVI-Mux GUI 1.17.8.3, Feb 16 201019:42:50

Видео
Идентификатор                            : 0
Формат                                   : MPEG-4 Visual
Профиль формата                          : Advanced Simple@L5
Параметр BVOP формата                    : 2
Параметр QPel формата                    : Нет
Параметр GMC формата                     : Без точки перехода
Параметр матрицы формата                 : Default (MPEG)
Идентификатор кодека                     : XVID
Идентификатор кодека/Подсказка           : XviD
Продолжительность                        : 1 ч. 44 м.
Битрейт                                  : 1668 Кбит/сек
Ширина                                   : 720 пикселей
Высота                                   : 304 пикселя
Соотношение сторон                       : 2,35:1
Частота кадров                           : 23,976 кадра/сек
Цветовое пространство                    : YUV
Субдискретизация насыщенности            : 4:2:0
Битовая глубина                          : 8 бит
Тип развёртки                            : Прогрессивная
Метод сжатия                             : С потерями
Бит/(Пиксели*Кадры)                      : 0.318
Размер потока                            : 1,22 Гбайт (89%)
Библиотека кодирования                   : XviD 67

Аудио
Идентификатор                            : 1
Формат                                   : MPEG Audio
Версия формата                           : Version 1
Профиль формата                          : Layer 3
Идентификатор кодека                     : 55
Идентификатор кодека/Подсказка           : MP3
Продолжительность                        : 1 ч. 44 м.
Вид битрейта                             : Постоянный
Битрейт                                  : 192 Кбит/сек
Каналы                                   : 2 канала
Частота                                  : 44,1 КГц
Метод сжатия                             : С потерями
Размер потока                            : 143 Мбайт (10%)
Выравнивание                             : Соединение по промежуткам
Продолжительность промежутка             : 481  мс. (11,52 видеокадров)
Время предзагрузки промежутка            : 208  мс.
Заголовок                                : T2_Audio - Russian
picpicpicpicpic
Для увеличения картинки щелкните мышкой по превью

Этот торрент недоступен для скачивания без регистрации, однако доступен по публичной magnet-ссылке (источники с публичных трекеров). Перед использованием ссылки прочтите, пожалуйста Пользовательское соглашение, а также как можно дольше оставайтесь на раздаче! Для того, чтобы скачать сам торрент-файл (который видит больше источников), а также для того, чтобы поблагодарить релизера, вам необходимо зарегистрироваться. Если регистрироваться лень - вы можете также попробовать скачать релиз по нашим партнерским ссылкам ниже.

[underverse.su].t61010.torrent
Трекер: Зарегистрирован   [ 20.12.2015 22:49 ]  

Статус: проверено (by makkol at 20.12.2015 23:04)
Поблагодарили: пока никто не поблагодарил...
Тип торрента: публичный - доступные источники с открытых трекеров: 
Размер: 1,36 GB (занимает 0,31 DVDR, для записи нужно 1 болванка DVDR/RW)
 
 
Похожие темы
Форум Тема Автор Торрент Отв. Посл. сооб.
Зарубежное кино [HDDVDRip / BDRip / WEB-DL / HDTV 1080/720р] Дровосек / Lumberjack Man (Джош Беар) [2015 г., ужасы, комедия, WEB-DL 720p] VO + Original makkol
14 | 2

0 | 528

13

20.12.2015 22:56


Яндекс.Метрика powered by Sphinx


В Н И М А Н И Е
Сайт не распространяет и не хранит электронные версии произведений, а лишь бесплатно и без коммерческой выгоды (не требуя взамен платы,
SMS и т.д.) предоставляет доступ к создаваемому пользователями каталогу ссылок на торрент-файлы, которые содержат только списки хеш-сумм.
Убедительная просьба с жалобами обращаться напрямую к пользователю, разместившему торрент файл.

Вверх