Loading...
Error

Новейший завет / Le tout nouveau testament (Жако ван Дормель) [2015 г., комедия, WEB-DLRip] Dub

Статистика раздачи
Размер:  1,46 GB   |    Зарегистрирован:  11 месяцев   |    Скачан:  144 раза

Полного источника не было: 1 час 10 минут

Сидов:  0  |  0 KB/s  ]   Личеров:  0  |  0 KB/s  ]

* - сиды/пиры с внешних источников

   
 
Автор Сообщение

makkol Пол:Муж

19-Дек-2015 22:45

Новейший завет / Le tout nouveau testament
«Бог существует! И он живет... в Брюсселе»


Год выпуска: 2015
Жанр: комедия
Производство: Бельгия , Франция , Люксембург [Belga Films Fund, Caviar Films]
Режиссер: Жако ван Дормель
В ролях: Бенуа Пульворд, Катрин Денёв, Франсуа Дамиенс, Иоланда Моро, Пили Груан, Лаура Верлинден, Серж Ларивье, Дидье Де Нек, Марко Лоренцини, Ромен Желен
Сюжет фильма:
Да, Бог существует. Но он совсем не такой, каким мы его представляли. Он живет в Брюсселе, и у него есть не только сын, но и дочь. Она сбегает из дома и отправляется в наш мир искать приключения и испытывать терпение своего отца на прочность. Надолго ли его хватит?..

  • Мировая премьера: 17 мая 2015
  • Российская премьера: 12 ноября 2015


Качество видео: WEB-DLRip

Продолжительность: 01:54:30
Формат: AVI
Видео: XviD, 720x304 (2.35:1), 24.000 fps, 1433 kbps
Аудио: русский, дублированный (iTunes), AC3 5.1, 48 kHz, 384 kbps

Код:

Общее
Формат                                   : AVI
Формат/Информация                        : Audio Video Interleave
Размер файла                             : 1,46 Гбайт
Продолжительность                        : 1 ч. 54 м.
Общий поток                              : 1826 Кбит/сек
Программа кодирования                    : VirtualDubMod 1.5.10.3 | | (build 2550/release)
Библиотека кодирования                   : VirtualDubMod build 2550/release

Видео
Идентификатор                            : 0
Формат                                   : MPEG-4 Visual
Профиль формата                          : Advanced Simple@L5
Параметр BVOP формата                    : 2
Параметр QPel формата                    : Нет
Параметр GMC формата                     : Без точки перехода
Параметр матрицы формата                 : Default (MPEG)
Идентификатор кодека                     : XVID
Идентификатор кодека/Подсказка           : XviD
Продолжительность                        : 1 ч. 54 м.
Битрейт                                  : 1433 Кбит/сек
Ширина                                   : 720 пикселей
Высота                                   : 304 пикселя
Соотношение сторон                       : 2,35:1
Частота кадров                           : 24,000 кадра/сек
Цветовое пространство                    : YUV
Субдискретизация насыщенности            : 4:2:0
Битовая глубина                          : 8 бит
Тип развёртки                            : Прогрессивная
Метод сжатия                             : С потерями
Бит/(Пиксели*Кадры)                      : 0.273
Размер потока                            : 1,15 Гбайт (78%)
Библиотека кодирования                   : XviD 1.2.1 (UTC 2008-12-04)

Аудио
Идентификатор                            : 1
Формат                                   : AC-3
Формат/Информация                        : Audio Coding 3
Расширение режима                        : CM (complete main)
Параметр Endianness формата              : Big
Идентификатор кодека                     : 2000
Продолжительность                        : 1 ч. 54 м.
Вид битрейта                             : Постоянный
Битрейт                                  : 384 Кбит/сек
Каналы                                   : 6 каналов
Расположение каналов                     : Front: L C R, Side: L R, LFE
Частота                                  : 48,0 КГц
Метод сжатия                             : С потерями
Размер потока                            : 315 Мбайт (21%)
Выравнивание                             : Разделение по промежуткам
Продолжительность промежутка             : 42  мс. (1,00 видеокадр)
Время предзагрузки промежутка            : 500  мс.
picpicpicpicpic
Для увеличения картинки щелкните мышкой по превью

Этот торрент недоступен для скачивания без регистрации, однако доступен по публичной magnet-ссылке (источники с публичных трекеров). Перед использованием ссылки прочтите, пожалуйста Пользовательское соглашение, а также как можно дольше оставайтесь на раздаче! Для того, чтобы скачать сам торрент-файл (который видит больше источников), а также для того, чтобы поблагодарить релизера, вам необходимо зарегистрироваться. Если регистрироваться лень - вы можете также попробовать скачать релиз по нашим партнерским ссылкам ниже.

[underverse.su].t60993.torrent
Трекер: Зарегистрирован   [ 19.12.2015 22:45 ]  

Статус: T временная (by makkol at 20.12.2015 23:00)
Поблагодарили: 2 человека
Тип торрента: публичный - доступные источники с открытых трекеров: 
Размер: 1,46 GB (занимает 0,33 DVDR, для записи нужно 1 болванка DVDR/RW)
 
 
Похожие темы
Форум Тема Автор Торрент Отв. Посл. сооб.
T Зарубежное кино [DVDRip, Low-Res HDRip, и т.д.] Новейший завет / Le tout nouveau testament (Жако ван Дормель / Jaco van Dormael) [2015 г., фэнтези, комедия, BDRip-AVC] Dub (iTunes) + Sub (Fre, Eng) 90ytr90
42 | 2

0 | 744

4

10.05.2016 16:17

T Зарубежное кино [DVDRip, Low-Res HDRip, и т.д.] Новейший завет / Le tout nouveau testament (Жако ван Дормель / Jaco van Dormael) [2015 г., фэнтези, комедия, BDRip-AVC] Dub (iTunes) + Original (Fre) + Sub (Fre, Eng) 90ytr90
53 | 1

0 | 545

5

11.05.2016 08:28

T Зарубежное кино [HDDVDRip / BDRip / WEB-DL / HDTV 1080/720р] Новейший завет / Le tout nouveau testament (Жако ван Дормель) [2015 г., комедия, WEB-DL 1080p] Dub makkol
101 | 3

0 | 742

60

19.12.2015 22:55


Яндекс.Метрика powered by Sphinx


В Н И М А Н И Е
Сайт не распространяет и не хранит электронные версии произведений, а лишь бесплатно и без коммерческой выгоды (не требуя взамен платы,
SMS и т.д.) предоставляет доступ к создаваемому пользователями каталогу ссылок на торрент-файлы, которые содержат только списки хеш-сумм.
Убедительная просьба с жалобами обращаться напрямую к пользователю, разместившему торрент файл.

Вверх