Loading...
Error

Охотник за головами (1-12 серия из 12) (Игорь Москвитин, Сергей Малюгов) [2015 г., Детектив, SatRip]

Статистика раздачи
Размер:  7,7 GB   |    Зарегистрирован:  11 месяцев   |    Скачан:  43 раза

Полного источника не было: 4 часа

Сидов:  0  |  0 KB/s  ]   Личеров:  0  |  0 KB/s  ]

* - сиды/пиры с внешних источников

   
 
Автор Сообщение

nemos Пол:Муж

19-Дек-2015 16:06

Охотник за головами


Год выпуска: 2015
Жанр: Детектив
Страна: Россия
Режиссер: Игорь Москвитин, Сергей Малюгов
В ролях: Пётр Кислов, Алексей Ведерников (II), Вера Строкова, Артур Ваха, Виктория Маслова, Алан Томаев, Александр Колесник, Валерий Соловьёв, Сергей Черапкин, Артур Федынко, Михаил Шеломенцев, Антонио Виллани, Александр Петров (III), Валентина Шевелева, Инна Ярмошук, Даниил Кокин
Сюжет фильма:
В центре истории - Саня Румянцев. Бывший талантливый опер, который, в силу своего свободолюбивого характера, уходит из уголовного розыска, открывает детективное агентство и становится «охотником за головами». Помогая полиции (и не только) отлавливать опасных преступников за вознаграждение, Саня попадает в различные опасные ситуации, которыми наполнен криминальный мир Петербурга. В этих приключениях ему помогают его друг и действующий опер Паша, а также дочка крупного бизнесмена и бывшего криминального авторитета Фадея - Тася, которую Саня спасет из рук маньяка в первой серии фильма. Главный герой очень собран и жесток в момент опасности, и в ситуациях, когда у него есть своя принципиальная позиция, он всегда на стороне справедливости и не всегда закона. Но, в отличие от таких жестких и целеустремленных героев, которые в обыденной жизни люди тоже суровые и угрюмые, Саня как раз с легкостью переходит эту границу и становится балагуром и весельчаком, до безумия влюбленного в свою жену Марину, которая из-за его характера и сумасшедшей работы с ним уже давно не живет. Марина и готова бы ответить ему взаимностью, склеить их отношения заново, но в самый неподходящий момент Саня срывается и убегает спасать очередную жертву.
Качество видео: SatRip

Продолжительность: 00:47:51 серия
Формат: AVI
Видео: XviD, 720x400, 1800 kbps
Аудио: русский, MP3 2.0, 128 kbps

Код:

E:\ФИЛЬМЫ\Ohotnik.za.golovami.2015.SATRip\01.avi
   General
      Complete name : E:\ФИЛЬМЫ\Ohotnik.za.golovami.2015.SATRip\01.avi
      Format : AVI
      Format/Info : Audio Video Interleave
      File size : 663 MiB
      Duration : 47mn 51s
      Overall bit rate : 1 938 Kbps
      Writing application : VirtualDubMod 1.5.10.3 | www.virtualdub-fr.org || (build 2550/release)
      Writing library : VirtualDubMod build 2550/release
   Video #0
      ID : 0
      Format : MPEG-4 Visual
      Format profile : Advanced Simple@L5
      Format settings, BVOP : 2
      Format settings, QPel : No
      Format settings, GMC : No warppoints
      Format settings, Matrix : Default (MPEG)
      Codec ID : XVID
      Codec ID/Hint : XviD
      Duration : 47mn 51s
      Bit rate : 1 800 Kbps
      Width : 720 pixels
      Height : 400 pixels
      Display aspect ratio : 16:9
      Frame rate : 25.000 fps
      Color space : YUV
      Chroma subsampling : 4:2:0
      Bit depth : 8 bits
      Scan type : Progressive
      Compression mode : Lossy
      Bits/(Pixel*Frame) : 0.250
      Stream size : 616 MiB (93%)
      Writing library : XviD 1.2.1 (UTC 2008-12-04)
   Audio #1
      ID : 1
      Format : MPEG Audio
      Format version : Version 1
      Format profile : Layer 3
      Mode : Joint stereo
      Mode extension : MS Stereo
      Codec ID : 55
      Codec ID/Hint : MP3
      Duration : 47mn 51s
      Bit rate mode : Constant
      Bit rate : 128 Kbps
      Channel(s) : 2 channels
      Sampling rate : 48.0 KHz
      Compression mode : Lossy
      Stream size : 43.8 MiB (7%)
      Alignment : Aligned on interleaves
      Interleave, duration : 40 ms (1.00 video frame)
      Interleave, preload duration : 504 ms
      Writing library : LAME3.99r
      Encoding settings : -m j -V 4 -q 9 -lowpass 17 -b 128
picpicpicpicpic
Для увеличения картинки щелкните мышкой по превью

Этот торрент недоступен для скачивания без регистрации, однако доступен по публичной magnet-ссылке (источники с публичных трекеров). Перед использованием ссылки прочтите, пожалуйста Пользовательское соглашение, а также как можно дольше оставайтесь на раздаче! Для того, чтобы скачать сам торрент-файл (который видит больше источников), а также для того, чтобы поблагодарить релизера, вам необходимо зарегистрироваться. Если регистрироваться лень - вы можете также попробовать скачать релиз по нашим партнерским ссылкам ниже.

[underverse.su].t61013.torrent
Трекер: Зарегистрирован   [ 21.12.2015 00:07 ]  

Статус: проверено (by nemos at 21.12.2015 00:08)
Поблагодарили: 3 человека
Тип торрента: публичный - доступные источники с открытых трекеров: 
Размер: 7,7 GB (занимает 1,76 DVDR, для записи нужно 2 болванки DVDR/RW)
 
 
Похожие темы
Форум Тема Автор Торрент Отв. Посл. сооб.
Зарубежное кино [DVDRip, Low-Res HDRip, и т.д.] Охотник за головами / The Bounty Hunter (Энди Теннант) [2010 г., боевик, комедия, мелодрама, криминал, DVDRip-700mb] LAMA
0 | 0

3 | 1102

15

13.04.2010 08:29

Зарубежное кино [DVDRip, Low-Res HDRip, и т.д.] Охотник за головами / The Bounty Hunter (Энди Теннант) [2010 г., боевик, комедия, мелодрама, криминал, DVDRip] maddd
0 | 0

5 | 1607

21

11.04.2010 15:53

Зарубежное кино [DVDRip, Low-Res HDRip, и т.д.] Охотник за пришельцами / Alien Hunter (Рон Краусс) [2003 г., фантастика, боевик, триллер, приключения, WEB-DLRip] 2 x MVO makkol
14 | 2

0 | 724

17

17.02.2016 23:27

Архив Охотник за головами / The Bounty Hunter (Энди Теннант / Andy Tennant) [2010 г., боевик, комедия, мелодрама, криминальный, DVDRip] GUree
0 | 0

1 | 941

5

05.11.2011 14:44

Архив Охотник за головами / The Bounty Hunter (Энди Теннант) [2010 г., Комедия, DVD-5] andrej-ku
0 | 0

1 | 1868

6

16.06.2011 08:09



Последний раз редактировалось: nemos (21.12.2015 01:58), всего редактировалось 4 раз(а)

nemos Пол:Муж

19-Дек-2015 22:00

Раздача обновлена. 12 серий.

Яндекс.Метрика powered by Sphinx


В Н И М А Н И Е
Сайт не распространяет и не хранит электронные версии произведений, а лишь бесплатно и без коммерческой выгоды (не требуя взамен платы,
SMS и т.д.) предоставляет доступ к создаваемому пользователями каталогу ссылок на торрент-файлы, которые содержат только списки хеш-сумм.
Убедительная просьба с жалобами обращаться напрямую к пользователю, разместившему торрент файл.

Вверх