Loading...
Error

Эверест / Everest (Бальтасар Кормакур) [2015 г., триллер, драма, приключения, HDRip] Dub

Статистика раздачи
Размер:  2,17 GB   |    Зарегистрирован:  11 месяцев   |    Скачан:  73 раза
Сидов:  1  |  0 KB/s  ]   Личеров:  0  |  0 KB/s  ]

* - сиды/пиры с внешних источников

   
 
Автор Сообщение

makkol Пол:Муж

19-Дек-2015 13:09

Эверест / Everest
«Самое опасное место на планете»


Год выпуска: 2015
Жанр: триллер, драма, приключения
Производство: США , Великобритания , Исландия [Cross Creek Pictures, Free State Pictures, Universal Pictures, Walden Media, Working Title Films]
Режиссер: Бальтасар Кормакур
В ролях: Джейсон Кларк, Джош Бролин, Джон Хоукс, Робин Райт, Эмили Уотсон, Кира Найтли, Сэм Уортингтон, Джейк Джилленхол, Анг Фула Шерпа, Томас М. Райт
Сюжет фильма:
Эверест — великая неприступная гора, покорить вершину которой мечтают многие профессиональные скалолазы. Одна из экспедиций на ее вершину закончилась настоящей трагедией, однако этот факт не останавливает отважных альпинистов.

Опытный инструктор Роб Холл, собрав группу из лучших альпинистов, собирается совершить восхождение на самую высокую вершину планеты. Все эти люди полны мужества и отваги и они не остановятся ни перед чем, пока не поднимутся на вершину Эвереста. Но даже если эта гора покорится им, смогут ли они вернуться обратно живыми и невредимыми?..

  • Мировая премьера: 2 сентября 2015
  • Российская премьера: 24 сентября 2015


Релиз: Лицензия

Качество видео: HDRip

Продолжительность: 02:00:54
Формат: AVI
Видео: XviD, 720x304 (2.35:1), 23.976 fps, 2110 kbps
Аудио: русский, дублированный, AC3 5.1, 48 kHz, 448 kbps
Субтитры: русские внешние форсированные, SRT

Код:

Общее
Формат                                   : AVI
Формат/Информация                        : Audio Video Interleave
Профиль формата                          : OpenDML
Размер файла                             : 2,17 Гбайт
Продолжительность                        : 2 ч. 1 м.
Общий поток                              : 2570 Кбит/сек
Программа кодирования                    : VirtualDubModRus 1.5.10.2 (build 2542/release)
Библиотека кодирования                   : VirtualDubMod build 2542/release

Видео
Идентификатор                            : 0
Формат                                   : MPEG-4 Visual
Профиль формата                          : Advanced Simple@L5
Параметр BVOP формата                    : 1
Параметр QPel формата                    : Нет
Параметр GMC формата                     : Без точки перехода
Параметр матрицы формата                 : Выборочная
Идентификатор кодека                     : XVID
Идентификатор кодека/Подсказка           : XviD
Продолжительность                        : 2 ч. 1 м.
Битрейт                                  : 2110 Кбит/сек
Ширина                                   : 720 пикселей
Высота                                   : 304 пикселя
Соотношение сторон                       : 2,35:1
Частота кадров                           : 23,976 кадра/сек
Цветовое пространство                    : YUV
Субдискретизация насыщенности            : 4:2:0
Битовая глубина                          : 8 бит
Тип развёртки                            : Прогрессивная
Метод сжатия                             : С потерями
Бит/(Пиксели*Кадры)                      : 0.402
Размер потока                            : 1,79 Гбайт (82%)
Библиотека кодирования                   : XviD 73

Аудио
Идентификатор                            : 1
Формат                                   : AC-3
Формат/Информация                        : Audio Coding 3
Расширение режима                        : CM (complete main)
Параметр Endianness формата              : Big
Идентификатор кодека                     : 2000
Продолжительность                        : 2 ч. 1 м.
Вид битрейта                             : Постоянный
Битрейт                                  : 448 Кбит/сек
Каналы                                   : 6 каналов
Расположение каналов                     : Front: L C R, Side: L R, LFE
Частота                                  : 48,0 КГц
Метод сжатия                             : С потерями
Размер потока                            : 388 Мбайт (17%)
Выравнивание                             : Разделение по промежуткам
Продолжительность промежутка             : 42  мс. (1,00 видеокадр)
Время предзагрузки промежутка            : 500  мс.
Релиз от:

picpicpicpicpic
Для увеличения картинки щелкните мышкой по превью

Этот торрент недоступен для скачивания без регистрации, однако доступен по публичной magnet-ссылке (источники с публичных трекеров). Перед использованием ссылки прочтите, пожалуйста Пользовательское соглашение, а также как можно дольше оставайтесь на раздаче! Для того, чтобы скачать сам торрент-файл (который видит больше источников), а также для того, чтобы поблагодарить релизера, вам необходимо зарегистрироваться. Если регистрироваться лень - вы можете также попробовать скачать релиз по нашим партнерским ссылкам ниже.

[underverse.su].t60982.torrent
Трекер: Зарегистрирован   [ 19.12.2015 13:09 ]  

Статус: проверено (by makkol at 19.12.2015 13:54)
Поблагодарили: 1 человек
Тип торрента: публичный - доступные источники с открытых трекеров: 
Размер: 2,17 GB (занимает 1/2 DVDR, для записи нужно 1 болванка DVDR/RW)
 
 
Похожие темы
Форум Тема Автор Торрент Отв. Посл. сооб.
Зарубежное кино [DVDRip, Low-Res HDRip, и т.д.] Эверест / Everest (Бальтасар Кормакур / Baltasar Kormakur) [2015 г., триллер, драма, приключения, HDRip] Dub + Sub (Rus) 90ytr90
604 | 10

0 | 624

13

11.01.2016 18:40

Зарубежное кино [DVDRip, Low-Res HDRip, и т.д.] Эверест / Everest (Бальтасар Кормакур / Baltasar Kormakur) [2015 г., триллер, драма, приключения, BDRip-AVC] Dub + Subs 90ytr90
167 | 3

0 | 532

4

11.01.2016 18:53

Зарубежное кино [DVDRip, Low-Res HDRip, и т.д.] Эверест / Everest (Бальтасар Кормакур / Baltasar Kormakur) [2015 г., триллер, драма, приключения, BDRip-AVC] Dub + Original (Eng) + Subs 90ytr90
36 | 0

0 | 531

6

11.01.2016 19:00

Зарубежное кино [DVDRip, Low-Res HDRip, и т.д.] Эверест / Everest (Бальтасар Кормакур / Baltasar Kormakur) [2015 г., триллер, драма, приключения, BDRip-AVC] Dub + Original (Eng) + Subs 90ytr90
16 | 0

0 | 518

2

11.01.2016 19:10

Зарубежное кино [DVDRip, Low-Res HDRip, и т.д.] Эверест / Everest (Бальтасар Кормакур / Baltasar Kormakur) [2015 г., триллер, драма, приключения, HDRip] Dub + hardsub (Rus) 90ytr90
9 | 0

0 | 477

11

23.01.2016 20:08

Зарубежное кино [HDDVDRip / BDRip / WEB-DL / HDTV 1080/720р] Эверест / Everest (Бальтасар Кормакур) [2015 г., триллер, драма, приключения, BDRip 720p] Dub + Original + Subs makkol
41 | 1

0 | 677

30

19.12.2015 13:26

Зарубежное кино [HDDVDRip / BDRip / WEB-DL / HDTV 1080/720р] Эверест / Everest ( Бальтасар Кормакур) [2015 г., триллер, драма, приключения, BDRip 1080p] Dub + Original + Subs makkol
60 | 0

0 | 1217

50

19.12.2015 13:38

Зарубежное кино [HDDVDRip / BDRip / WEB-DL / HDTV 1080/720р] Эверест / Everest (Бальтасар Кормакур / Baltasar Kormakur) [2015 г., триллер, драма, приключения, BDRip 1080p] Dub + Original (Eng) + Sub (Rus, Eng) 90ytr90
175 | 6

0 | 533

7

11.01.2016 19:18

Зарубежное кино [HDDVDRip / BDRip / WEB-DL / HDTV 1080/720р] Эверест / Everest (Бальтасар Кормакур / Baltasar Kormakur) [2015 г., триллер, драма, приключения, BDRip 720p] Dub + Original (Eng) + Subs 90ytr90
125 | 2

0 | 549

5

11.01.2016 19:27


Яндекс.Метрика powered by Sphinx


В Н И М А Н И Е
Сайт не распространяет и не хранит электронные версии произведений, а лишь бесплатно и без коммерческой выгоды (не требуя взамен платы,
SMS и т.д.) предоставляет доступ к создаваемому пользователями каталогу ссылок на торрент-файлы, которые содержат только списки хеш-сумм.
Убедительная просьба с жалобами обращаться напрямую к пользователю, разместившему торрент файл.

Вверх