Loading...
Error

Юнион Фернас / Union Furnace (Николас Бушмен) [2015 г., ужасы, триллер, DVDRip] DVO

Статистика раздачи
Размер:  1,39 GB   |    Зарегистрирован:  11 месяцев   |    Скачан:  22 раза

Полного источника не было: 2 часа 16 минут

Сидов:  0  |  0 KB/s  ]   Личеров:  0  |  0 KB/s  ]

* - сиды/пиры с внешних источников

   
 
Автор Сообщение

makkol Пол:Муж

14-Дек-2015 23:37

Юнион Фернас / Union Furnace


Год выпуска: 2015
Жанр: ужасы, триллер
Производство: США [Broadview Features Development]
Режиссер: Николас Бушмен
В ролях: Майкл Т. Двайер, Сет Хэммонд, Кэти Кин, Кит Дэвид, Кевин Краули, Тара Белландо, Misa Farslow, Крис Гриффит, Дэвид Хейуорд, Лайл Кэйнаус
Сюжет фильма:
Мошенник из маленького городка, Коди, оказывается, фактически, с петлей на шее, когда таинственный незнакомец предложил ему последний шанс в жизни. Вот только тут появилась проблемка, ведь в игре, в которую должен сыграть Коди, он должен поставить на кон всё, включая собственную жизнь. Коди оказывается запертым в комнате вместе с группой аутсайдеров и неудачников, которые, как и он борются за свой кусок пирога американской мечты. Подвергаясь пыткам и моральному унижению группой садистов в масках, Коди, как и другие, может выиграть целое состояние или же умереть жестокой смертью.

  • Мировая премьера: 17 июля 2015


Качество видео: DVDRip

Продолжительность: 01:29:31
Формат: AVI
Видео: XviD, 720x304 (2.35:1), 24.000 fps, 2023 kbps
Аудио: русский, любительский двухголосый закадровый (den904 & DeadSno), AC3 2.0, 48 kHz, 192 kbps

Код:

Общее
Формат                                   : AVI
Формат/Информация                        : Audio Video Interleave
Размер файла                             : 1,39 Гбайт
Продолжительность                        : 1 ч. 29 м.
Общий поток                              : 2224 Кбит/сек
Программа кодирования                    : VirtualDubMod 1.5.10.2 (build 2540/release)
Библиотека кодирования                   : VirtualDubMod build 2540/release

Видео
Идентификатор                            : 0
Формат                                   : MPEG-4 Visual
Профиль формата                          : Advanced Simple@L5
Параметр BVOP формата                    : 2
Параметр QPel формата                    : Нет
Параметр GMC формата                     : Без точки перехода
Параметр матрицы формата                 : Default (MPEG)
Режим смешивания                         : Сжатый битовый поток
Идентификатор кодека                     : XVID
Идентификатор кодека/Подсказка           : XviD
Продолжительность                        : 1 ч. 29 м.
Битрейт                                  : 2023 Кбит/сек
Ширина                                   : 720 пикселей
Высота                                   : 304 пикселя
Соотношение сторон                       : 2,35:1
Частота кадров                           : 24,000 кадра/сек
Цветовое пространство                    : YUV
Субдискретизация насыщенности            : 4:2:0
Битовая глубина                          : 8 бит
Тип развёртки                            : Прогрессивная
Метод сжатия                             : С потерями
Бит/(Пиксели*Кадры)                      : 0.385
Размер потока                            : 1,26 Гбайт (91%)
Библиотека кодирования                   : XviD 64

Аудио
Идентификатор                            : 1
Формат                                   : AC-3
Формат/Информация                        : Audio Coding 3
Расширение режима                        : CM (complete main)
Параметр Endianness формата              : Big
Идентификатор кодека                     : 2000
Продолжительность                        : 1 ч. 29 м.
Вид битрейта                             : Постоянный
Битрейт                                  : 192 Кбит/сек
Каналы                                   : 2 канала
Расположение каналов                     : Front: L R
Частота                                  : 48,0 КГц
Метод сжатия                             : С потерями
Размер потока                            : 123 Мбайт (9%)
Выравнивание                             : Разделение по промежуткам
Продолжительность промежутка             : 42  мс. (1,00 видеокадр)
Время предзагрузки промежутка            : 500  мс.
picpicpicpicpic
Для увеличения картинки щелкните мышкой по превью

Этот торрент недоступен для скачивания без регистрации, однако доступен по публичной magnet-ссылке (источники с публичных трекеров). Перед использованием ссылки прочтите, пожалуйста Пользовательское соглашение, а также как можно дольше оставайтесь на раздаче! Для того, чтобы скачать сам торрент-файл (который видит больше источников), а также для того, чтобы поблагодарить релизера, вам необходимо зарегистрироваться. Если регистрироваться лень - вы можете также попробовать скачать релиз по нашим партнерским ссылкам ниже.

[underverse.su].t60884.torrent
Трекер: Зарегистрирован   [ 14.12.2015 23:37 ]  

Статус: проверено (by makkol at 15.12.2015 13:50)
Поблагодарили: пока никто не поблагодарил...
Тип торрента: публичный - доступные источники с открытых трекеров: 
Размер: 1,39 GB (занимает 0,32 DVDR, для записи нужно 1 болванка DVDR/RW)
 
 

Яндекс.Метрика powered by Sphinx


В Н И М А Н И Е
Сайт не распространяет и не хранит электронные версии произведений, а лишь бесплатно и без коммерческой выгоды (не требуя взамен платы,
SMS и т.д.) предоставляет доступ к создаваемому пользователями каталогу ссылок на торрент-файлы, которые содержат только списки хеш-сумм.
Убедительная просьба с жалобами обращаться напрямую к пользователю, разместившему торрент файл.

Вверх