Loading...
Error

Убийца / Nie yin niang / The Assassin (Хоу Сяосянь) [2015 г., боевик, драма, исторический, HDRip-AVC] DVO + Original + Subs

Статистика раздачи
Размер:  2,18 GB   |    Зарегистрирован:  11 месяцев   |    Скачан:  24 раза

Полного источника не было: 1 месяц 11 дней

Сидов:  0  |  0 KB/s  ]   Личеров:  0  |  0 KB/s  ]

* - сиды/пиры с внешних источников

   
 
Автор Сообщение

makkol Пол:Муж

13-Дек-2015 22:26

Убийца / Nie yin niang / The Assassin


Год выпуска: 2015
Жанр: боевик, драма, исторический
Производство: Тайвань , Китай , Гонконг , Франция [Central Motion Pictures, China Dream Film Culture Industry, Media Asia Films Ltd.]
Режиссер: Хоу Сяосянь
В ролях: Шу Ци, Чэнь Чан, Сатоси Цумабуки, Юнь Чжоу, Никки Синь-Ин Се, Этан Жуань, Ни Дахон
Сюжет фильма:
Китай, время правления династии Танг. Главная героиня — убийца, влюбившаяся в человека, которого ей приказано убить.

  • Мировая премьера: 21 мая 2015


Качество видео: HDRip-AVC

Продолжительность: 01:45:26
Формат: MKV
Видео: MPEG-4 AVC, 720x512, 24.000 fps, 2059 kbps
Аудио #1: русский, любительский двухголосый закадровый, AC3 5.1, 48 kHz, 448 kbps
Аудио #2: китайский, оригинал, AC3 5.1, 48 kHz, 448 kbps
Субтитры: русские форсированные (на надписи) + полные вшитые отключаемые, ASS

Код:

Формат : Matroska
Версия формата : Version 4 / Version 2
Размер файла : 2,18 Гбайт
Продолжительность : 1 ч. 45 м.
Общий поток : 2958 Кбит/сек
Дата кодирования : UTC 2015-12-13 13:09:38
Программа кодирования : mkvmerge v8.2.0 ('World of Adventure') 32bit
Библиотека кодирования : libebml v1.3.1 + libmatroska v1.4.2
Attachements : DS BroadBrush.ttf / Favorit.ttf / PALETTE.TTF / tahoma_0.ttf
DURATION : 01:38:30.260000000
NUMBER_OF_FRAMES : 17
NUMBER_OF_BYTES : 2182
_STATISTICS_WRITING_APP : mkvmerge v8.2.0 ('World of Adventure') 32bit
_STATISTICS_WRITING_DATE_UTC : 2015-12-13 13:09:38
_STATISTICS_TAGS : BPS DURATION NUMBER_OF_FRAMES NUMBER_OF_BYTES

Видео
Идентификатор : 1
Формат : AVC
Формат/Информация : Advanced Video Codec
Профиль формата : High@L4.1
Параметр CABAC формата : Да
Параметр ReFrames формата : 10 кадров
Идентификатор кодека : V_MPEG4/ISO/AVC
Продолжительность : 1 ч. 45 м.
Битрейт : 2059 Кбит/сек
Ширина : 720 пикселей
Высота : 512 пикселей
Соотношение сторон : 1,406
Режим частоты кадров : Постоянный
Частота кадров : 24,000 кадра/сек
Цветовое пространство : YUV
Субдискретизация насыщенности : 4:2:0
Битовая глубина : 8 бит
Тип развёртки : Прогрессивная
Бит/(Пиксели*Кадры) : 0.233
Размер потока : 1,48 Гбайт (68%)
Библиотека кодирования : x264 core 148 r2638 7599210
Настройки программы : cabac=1 / ref=10 / deblock=1:-2:-1 / analyse=0x3:0x133 / me=umh / subme=10 / psy=1 / psy_rd=1.00:0.00 / mixed_ref=1 / me_range=24 / chroma_me=1 / trellis=2 / 8x8dct=1 / cqm=0 / deadzone=21,11 / fast_pskip=0 / chroma_qp_offset=-2 / threads=6 / lookahead_threads=1 / sliced_threads=0 / nr=0 / decimate=0 / interlaced=0 / bluray_compat=0 / constrained_intra=0 / bframes=10 / b_pyramid=2 / b_adapt=2 / b_bias=0 / direct=3 / weightb=1 / open_gop=1 / weightp=2 / keyint=240 / keyint_min=24 / scenecut=40 / intra_refresh=0 / rc_lookahead=60 / rc=2pass / mbtree=0 / bitrate=2059 / ratetol=1.0 / qcomp=0.70 / qpmin=10 / qpmax=51 / qpstep=4 / cplxblur=20.0 / qblur=0.5 / vbv_maxrate=62500 / vbv_bufsize=78125 / nal_hrd=none / filler=0 / ip_ratio=1.40 / pb_ratio=1.30 / aq=1:1.00
Язык : English
Default : Да
Forced : Нет
Цветовой диапазон : Limited
Коэффициенты матрицы : BT.709
DURATION : 01:45:26.875000000
NUMBER_OF_FRAMES : 151845
NUMBER_OF_BYTES : 1628178275
_STATISTICS_WRITING_APP : mkvmerge v8.2.0 ('World of Adventure') 32bit
_STATISTICS_WRITING_DATE_UTC : 2015-12-13 13:09:38
_STATISTICS_TAGS : BPS DURATION NUMBER_OF_FRAMES NUMBER_OF_BYTES

Аудио #1
Идентификатор : 2
Формат : AC-3
Формат/Информация : Audio Coding 3
Расширение режима : CM (complete main)
Параметр Endianness формата : Big
Идентификатор кодека : A_AC3
Продолжительность : 1 ч. 45 м.
Вид битрейта : Постоянный
Битрейт : 448 Кбит/сек
Каналы : 6 каналов
Расположение каналов : Front: L C R, Side: L R, LFE
Частота : 48,0 КГц
Метод сжатия : С потерями
Размер потока : 338 Мбайт (15%)
Заголовок : Ворон и Wenlana
Язык : Russian
Default : Да
Forced : Нет

Аудио #2
Идентификатор : 3
Формат : AC-3
Формат/Информация : Audio Coding 3
Расширение режима : CM (complete main)
Параметр Endianness формата : Big
Идентификатор кодека : A_AC3
Продолжительность : 1 ч. 45 м.
Вид битрейта : Постоянный
Битрейт : 448 Кбит/сек
Каналы : 6 каналов
Расположение каналов : Front: L C R, Side: L R, LFE
Частота : 48,0 КГц
Метод сжатия : С потерями
Размер потока : 338 Мбайт (15%)
Заголовок : Original
Язык : Chinese
Default : Нет
Forced : Нет

Текст #1
Идентификатор : 4
Формат : ASS
Идентификатор кодека : S_TEXT/ASS
Идентификатор кодека/Информация : Advanced Sub Station Alpha
Метод сжатия : Без потерь
Заголовок : форсированный(надписи)
Язык : Russian
Default : Да
Forced : Да

Текст #2
Идентификатор : 5
Формат : ASS
Идентификатор кодека : S_TEXT/ASS
Идентификатор кодека/Информация : Advanced Sub Station Alpha
Метод сжатия : Без потерь
Заголовок : Перевод: Ворон, Редакция: Ленка(ФСГ"Альянс")
Язык : Russian
Default : Нет
Forced : Нет
Перевод: Ворон
Редакция: Ленка(ФСГ"Альянс")
Консультация по китайскому: JJ
Озвучивание: Ворон и Wenlana
Релиз от
picpicpicpicpic
Для увеличения картинки щелкните мышкой по превью

Этот торрент недоступен для скачивания без регистрации, однако доступен по публичной magnet-ссылке (источники с публичных трекеров). Перед использованием ссылки прочтите, пожалуйста Пользовательское соглашение, а также как можно дольше оставайтесь на раздаче! Для того, чтобы скачать сам торрент-файл (который видит больше источников), а также для того, чтобы поблагодарить релизера, вам необходимо зарегистрироваться. Если регистрироваться лень - вы можете также попробовать скачать релиз по нашим партнерским ссылкам ниже.

[underverse.su].t60858.torrent
Трекер: Зарегистрирован   [ 13.12.2015 22:26 ]  

Статус: проверено (by makkol at 15.12.2015 13:46)
Поблагодарили: пока никто не поблагодарил...
Тип торрента: публичный - доступные источники с открытых трекеров: 
Размер: 2,18 GB (занимает 1/2 DVDR, для записи нужно 1 болванка DVDR/RW)
 
 
Похожие темы
Форум Тема Автор Торрент Отв. Посл. сооб.
Зарубежное кино [DVDRip, Low-Res HDRip, и т.д.] Убийца / Nie yin niang (Хоу Сяосянь / Hou Hsiao-hsien) [2015 г., боевик, драма, HDRip] DVO (Ворон и Wenlana) 90ytr90
24 | 2

0 | 501

11

09.01.2016 14:33

Зарубежное кино [HDDVDRip / BDRip / WEB-DL / HDTV 1080/720р] Убийца / Nie yin niang (Хоу Сяосянь / Hou Hsiao-hsien) [2015 г., боевик, драма, BDRip 720p] DVO (Ворон и Wenlana) + Original (Chi) + Sub (Rus) 90ytr90
35 | 2

0 | 420

4

09.01.2016 14:43

Зарубежное кино [HDDVDRip / BDRip / WEB-DL / HDTV 1080/720р] Убийца / Nie yin niang (Хоу Сяосянь / Hou Hsiao-hsien) [2015 г., боевик, драма, BDRip 1080p] DVO (Ворон и Wenlana) + Original (Chi) + Subs 90ytr90
1 | 0

0 | 516

6

09.01.2016 14:53


Яндекс.Метрика powered by Sphinx


В Н И М А Н И Е
Сайт не распространяет и не хранит электронные версии произведений, а лишь бесплатно и без коммерческой выгоды (не требуя взамен платы,
SMS и т.д.) предоставляет доступ к создаваемому пользователями каталогу ссылок на торрент-файлы, которые содержат только списки хеш-сумм.
Убедительная просьба с жалобами обращаться напрямую к пользователю, разместившему торрент файл.

Вверх