Loading...
Error

Люди, места, вещи / People Places Things (Джеймс С. Страуз) [2015 г., комедия, WEB-DLRip] DVO

Статистика раздачи
Размер:  1,37 GB   |    Зарегистрирован:  11 месяцев   |    Скачан:  25 раз

Полного источника не было: 9 месяцев

Сидов:  0  |  0 KB/s  ]   Личеров:  0  |  0 KB/s  ]

* - сиды/пиры с внешних источников

   
 
Автор Сообщение

makkol Пол:Муж

12-Дек-2015 12:05

Люди, места, вещи / People Places Things


Год выпуска: 2015
Жанр: комедия
Производство: США [Beachside Films]
Режиссер: Джеймс С. Страуз
В ролях: Джемейн Клемент, Реджина Холл, Джессика Уильямс, Майкл Чернус, Ондреа Гадсби, Гия Гадсби, Деррик Артур, Селия Ау, Катрин Кэйн
Сюжет фильма:
Недавно разведённый автор графических новелл пытается воспитывать двух дочерей, учить студентов и искать новую любовь, хотя для этого ему потребуется забыть бывшую жену.

  • Мировая премьера: 26 января 2015


Качество видео: WEB-DLRip

Продолжительность: 01:26:39
Формат: AVI
Видео: XviD, 720x400 (16:9), 23.976 fps, 1865 kbps
Аудио: русский, профессиональный двухголосый закадровый, AC3 5.1, 48 kHz, 384 kbps

Код:

Общее
Формат                                   : AVI
Формат/Информация                        : Audio Video Interleave
Размер файла                             : 1,37 Гбайт
Продолжительность                        : 1 ч. 26 м.
Общий поток                              : 2258 Кбит/сек
Программа кодирования                    : VirtualDubMod 1.5.10.2 (build 2540/release)
Библиотека кодирования                   : VirtualDubMod build 2540/release

Видео
Идентификатор                            : 0
Формат                                   : MPEG-4 Visual
Профиль формата                          : Advanced Simple@L5
Параметр BVOP формата                    : 2
Параметр QPel формата                    : Нет
Параметр GMC формата                     : Без точки перехода
Параметр матрицы формата                 : Default (MPEG)
Идентификатор кодека                     : XVID
Идентификатор кодека/Подсказка           : XviD
Продолжительность                        : 1 ч. 26 м.
Битрейт                                  : 1865 Кбит/сек
Ширина                                   : 720 пикселей
Высота                                   : 400 пикселей
Соотношение сторон                       : 16:9
Частота кадров                           : 23,976 кадра/сек
Цветовое пространство                    : YUV
Субдискретизация насыщенности            : 4:2:0
Битовая глубина                          : 8 бит
Тип развёртки                            : Прогрессивная
Метод сжатия                             : С потерями
Бит/(Пиксели*Кадры)                      : 0.270
Размер потока                            : 1,13 Гбайт (83%)
Библиотека кодирования                   : XviD 1.2.1 (UTC 2008-12-04)

Аудио
Идентификатор                            : 1
Формат                                   : AC-3
Формат/Информация                        : Audio Coding 3
Расширение режима                        : CM (complete main)
Идентификатор кодека                     : 2000
Продолжительность                        : 1 ч. 26 м.
Вид битрейта                             : Постоянный
Битрейт                                  : 384 Кбит/сек
Каналы                                   : 6 каналов
Расположение каналов                     : Front: L C R, Side: L R, LFE
Частота                                  : 48,0 КГц
Битовая глубина                          : 16 бит
Метод сжатия                             : С потерями
Размер потока                            : 238 Мбайт (17%)
Выравнивание                             : Разделение по промежуткам
Продолжительность промежутка             : 42  мс. (1,00 видеокадр)
Время предзагрузки промежутка            : 500  мс.
Перевод: Trotteville
Озвучивание: Алексей Серёгин и Ирина Воронова
Релиз от:
picpicpicpicpic
Для увеличения картинки щелкните мышкой по превью

Этот торрент недоступен для скачивания без регистрации, однако доступен по публичной magnet-ссылке (источники с публичных трекеров). Перед использованием ссылки прочтите, пожалуйста Пользовательское соглашение, а также как можно дольше оставайтесь на раздаче! Для того, чтобы скачать сам торрент-файл (который видит больше источников), а также для того, чтобы поблагодарить релизера, вам необходимо зарегистрироваться. Если регистрироваться лень - вы можете также попробовать скачать релиз по нашим партнерским ссылкам ниже.

[underverse.su].t60828.torrent
Трекер: Зарегистрирован   [ 12.12.2015 12:05 ]  

Статус: проверено (by makkol at 12.12.2015 22:58)
Поблагодарили: пока никто не поблагодарил...
Тип торрента: публичный - доступные источники с открытых трекеров: 
Размер: 1,37 GB (занимает 0,31 DVDR, для записи нужно 1 болванка DVDR/RW)
 
 
Похожие темы
Форум Тема Автор Торрент Отв. Посл. сооб.
T Зарубежное кино [DVDRip, Low-Res HDRip, и т.д.] Люди, места, вещи / People Places Things (Джеймс С. Страуз) [2015 г., комедия, WEB-DLRip] MVO makkol
12 | 0

0 | 410

20

06.02.2016 10:25

Зарубежное кино [HDDVDRip / BDRip / WEB-DL / HDTV 1080/720р] Люди, места, вещи / People Places Things (Джеймс С. Страуз) [2015 г., комедия, WEB-DL 720p] DVO + Original + Subs makkol
7 | 0

0 | 545

13

12.12.2015 12:15

T Зарубежное кино [HDDVDRip / BDRip / WEB-DL / HDTV 1080/720р] Люди, места, вещи / People Places Things (Джеймс С. Страуз) [2015 г., комедия, WEB-DL 1080p] MVO + Original + Subs makkol
2 | 0

0 | 472

13

06.02.2016 10:35


Яндекс.Метрика powered by Sphinx


В Н И М А Н И Е
Сайт не распространяет и не хранит электронные версии произведений, а лишь бесплатно и без коммерческой выгоды (не требуя взамен платы,
SMS и т.д.) предоставляет доступ к создаваемому пользователями каталогу ссылок на торрент-файлы, которые содержат только списки хеш-сумм.
Убедительная просьба с жалобами обращаться напрямую к пользователю, разместившему торрент файл.

Вверх