Loading...
Error

Смерть в колледже / Dead on Campus (Кертис Кроуфорд) [2014 г., триллер, детектив, драма, BDRip] AVO

Статистика раздачи
Размер:  1,46 GB   |    Зарегистрирован:  11 месяцев   |    Скачан:  7 раз

Полного источника не было: 11 месяцев

Сидов:  0  |  0 KB/s  ]   Личеров:  0  |  0 KB/s  ]

* - сиды/пиры с внешних источников

   
 
Автор Сообщение

makkol Пол:Муж

12-Дек-2015 10:49

Смерть в колледже / Dead on Campus


Год выпуска: 2014
Жанр: триллер, детектив, драма
Производство: Канада [NB Thrilling Films, Reel One Entertainment]
Режиссер: Кертис Кроуфорд
В ролях: Кейтлин Тервер, Тамара Дуарте, Никки Эйкокс, Ашанти Бромфилд, Мирель Браунхил, Синтия Бурк, Тристан Кригер, Джулия Дэйлз, Питер Майкл Диллон, Джонатан Эмонд
Сюжет фильма:
Студенческие братства всегда славились своими обрядами посвящения и различными розыгрышами. Не исключением был и женский клуб Фи Дельта Пи, в который вступила Натали после поступления в колледж. Это был клуб с давней историей. Во время посвящения в сестры этого клуба Натали должна была соблазнить студента Самнера, который был немного странным. В клубе девушки угостили парня печеньем, в котором были наркотики. В результате "безобидного" розыгрыша Самнер попадает в автокатастрофу и погибает. Натали не может найти себе места, но ее новые сестры по клубу сделают все чтобы она не проболталась...

  • Мировая премьера: 8 ноября 2014


Качество видео: BDRip

Продолжительность: 01:28:51
Формат: AVI
Видео: XviD, 704x396, 23.976 fps, 1898 kbps
Аудио: русский, авторский одноголосый закадровый (Андрей Дольский), AC3 5.1, 48 kHz, 448 kbps

Код:

Общее
Формат                                   : AVI
Формат/Информация                        : Audio Video Interleave
Профиль формата                          : OpenDML
Настройки формата                        : rec
Размер файла                             : 1,46 Гбайт
Продолжительность                        : 1 ч. 28 м.
Общий поток                              : 2352 Кбит/сек
Программа кодирования                    : AVI-Mux GUI 1.17.8.3, Feb 16 201019:42:50

Видео
Идентификатор                            : 0
Формат                                   : MPEG-4 Visual
Профиль формата                          : Advanced Simple@L5
Параметр BVOP формата                    : 1
Параметр QPel формата                    : Нет
Параметр GMC формата                     : Без точки перехода
Параметр матрицы формата                 : Default (H.263)
Режим смешивания                         : Сжатый битовый поток
Идентификатор кодека                     : XVID
Идентификатор кодека/Подсказка           : XviD
Продолжительность                        : 1 ч. 28 м.
Битрейт                                  : 1898 Кбит/сек
Ширина                                   : 704 пикселя
Высота                                   : 396 пикселей
Соотношение сторон                       : 16:9
Частота кадров                           : 23,976 кадра/сек
Цветовое пространство                    : YUV
Субдискретизация насыщенности            : 4:2:0
Битовая глубина                          : 8 бит
Тип развёртки                            : Прогрессивная
Метод сжатия                             : С потерями
Бит/(Пиксели*Кадры)                      : 0.284
Размер потока                            : 1,18 Гбайт (81%)
Библиотека кодирования                   : XviD 1.2.1 (UTC 2008-12-04)

Аудио
Идентификатор                            : 1
Формат                                   : AC-3
Формат/Информация                        : Audio Coding 3
Расширение режима                        : CM (complete main)
Параметр Endianness формата              : Big
Идентификатор кодека                     : 2000
Продолжительность                        : 1 ч. 28 м.
Вид битрейта                             : Постоянный
Битрейт                                  : 448 Кбит/сек
Каналы                                   : 6 каналов
Расположение каналов                     : Front: L C R, Side: L R, LFE
Частота                                  : 48,0 КГц
Метод сжатия                             : С потерями
Размер потока                            : 285 Мбайт (19%)
Выравнивание                             : Соединение по промежуткам
Продолжительность промежутка             : 64  мс. (1,53 видеокадра)
Время предзагрузки промежутка            : 192  мс.
Заголовок                                : Dead.on.Campus.rus
Релиз от: ylnian

picpicpicpicpic
Для увеличения картинки щелкните мышкой по превью

Этот торрент недоступен для скачивания без регистрации, однако доступен по публичной magnet-ссылке (источники с публичных трекеров). Перед использованием ссылки прочтите, пожалуйста Пользовательское соглашение, а также как можно дольше оставайтесь на раздаче! Для того, чтобы скачать сам торрент-файл (который видит больше источников), а также для того, чтобы поблагодарить релизера, вам необходимо зарегистрироваться. Если регистрироваться лень - вы можете также попробовать скачать релиз по нашим партнерским ссылкам ниже.

[underverse.su].t60825.torrent
Трекер: Зарегистрирован   [ 12.12.2015 10:49 ]  

Статус: проверено (by makkol at 12.12.2015 22:55)
Поблагодарили: пока никто не поблагодарил...
Тип торрента: публичный - доступные источники с открытых трекеров: 
Размер: 1,46 GB (занимает 0,33 DVDR, для записи нужно 1 болванка DVDR/RW)
 
 
Похожие темы
Форум Тема Автор Торрент Отв. Посл. сооб.
Личности Смерть в кремлевском кабинете [2009 г., документальный, биография, история, расследование, SatRip] ARI71
3 | 0

0 | 359

7

16.02.2016 07:35

Зарубежное кино [HDDVDRip / BDRip / WEB-DL / HDTV 1080/720р] Смерть в колледже / Dead on Campus (Кертис Кроуфорд) [2014 г., триллер, детектив, драма, BDRip 1080p] AVO + Original makkol
2 | 3

0 | 392

3

12.12.2015 10:56


Яндекс.Метрика powered by Sphinx


В Н И М А Н И Е
Сайт не распространяет и не хранит электронные версии произведений, а лишь бесплатно и без коммерческой выгоды (не требуя взамен платы,
SMS и т.д.) предоставляет доступ к создаваемому пользователями каталогу ссылок на торрент-файлы, которые содержат только списки хеш-сумм.
Убедительная просьба с жалобами обращаться напрямую к пользователю, разместившему торрент файл.

Вверх