Loading...
Error

Капитан Сокол / Капитан Фалкао / Capitao Falcao (Джоао Лейтао) [2015 г., комедия, BDRip] VO

Статистика раздачи
Размер:  1,46 GB   |    Зарегистрирован:  11 месяцев   |    Скачан:  13 раз

Полного источника не было: 4 дня

Сидов:  0  |  0 KB/s  ]   Личеров:  0  |  0 KB/s  ]

* - сиды/пиры с внешних источников

   
 
Автор Сообщение

makkol Пол:Муж

11-Дек-2015 21:55

Капитан Сокол / Капитан Фалкао / Capitão Falcão


Год выпуска: 2015
Жанр: комедия
Производство: Португалия [Individeos]
Режиссер: Джоао Лейтао
В ролях: Гонсало Уэддингтон, Дэвид Чан Кордейро, Жозе Пинту, Тьяго Родригез
Сюжет фильма:
Комедия Капитан Фалкао рассказывает историю португальского супергероя, который служит новому правительству страны, пришедшему к власти с помощью военного переворота. Вместе с Путо Партриджем, своим лучшим другом, капитан Фалкао успешно предотвращает все угрозы, возникающие вследствие происков врагов новых властей. Однако когда жители столицы сталкиваются с совершенно новой опасностью, даже прославленный герой оказывается бессилен... Удастся ли Капитану Фалкао справиться с могущественным и безжалостным противником?

  • Мировая премьера: 25 декабря 2014


Качество видео: BDRip

Продолжительность: 01:46:33
Формат: AVI
Видео: XviD, 720x304 (2.35:1), 24.000 fps, 1759 kbps
Аудио: русский, любительский одноголосый закадровый, AC3 2.0, 48 kHz, 192 kbps

Код:

Общее
Полное имя                               : Capitao Falcao_2015_KypoJIecoB.avi
Формат                                   : AVI
Формат/Информация                        : Audio Video Interleave
Размер файла                             : 1,46 Гбайт
Продолжительность                        : 1 ч. 46 м.
Общий поток                              : 1960 Кбит/сек
Программа кодирования                    : VirtualDubMod 1.5.10.2 (build 2540/release)
Библиотека кодирования                   : VirtualDubMod build 2540/release

Видео
Идентификатор                            : 0
Формат                                   : MPEG-4 Visual
Профиль формата                          : Advanced Simple@L5
Параметр BVOP формата                    : 1
Параметр QPel формата                    : Нет
Параметр GMC формата                     : Без точки перехода
Параметр матрицы формата                 : Default (MPEG)
Идентификатор кодека                     : XVID
Идентификатор кодека/Подсказка           : XviD
Продолжительность                        : 1 ч. 46 м.
Битрейт                                  : 1759 Кбит/сек
Ширина                                   : 720 пикселей
Высота                                   : 304 пикселя
Соотношение сторон                       : 2,35:1
Частота кадров                           : 24,000 кадра/сек
Цветовое пространство                    : YUV
Субдискретизация насыщенности            : 4:2:0
Битовая глубина                          : 8 бит
Тип развёртки                            : Прогрессивная
Метод сжатия                             : С потерями
Бит/(Пиксели*Кадры)                      : 0.335
Размер потока                            : 1,31 Гбайт (90%)
Библиотека кодирования                   : XviD 1.2.1 (UTC 2008-12-04)

Аудио
Идентификатор                            : 1
Формат                                   : AC-3
Формат/Информация                        : Audio Coding 3
Расширение режима                        : CM (complete main)
Параметр Endianness формата              : Big
Идентификатор кодека                     : 2000
Продолжительность                        : 1 ч. 46 м.
Вид битрейта                             : Постоянный
Битрейт                                  : 192 Кбит/сек
Каналы                                   : 2 канала
Расположение каналов                     : Front: L R
Частота                                  : 48,0 КГц
Метод сжатия                             : С потерями
Размер потока                            : 146 Мбайт (10%)
Выравнивание                             : Разделение по промежуткам
Продолжительность промежутка             : 42  мс. (1,00 видеокадр)
Время предзагрузки промежутка            : 500  мс.
Перевод: Enigma
Озвучивание: Васька Куролесов
Релиз от:
picpicpicpicpic
Для увеличения картинки щелкните мышкой по превью

Этот торрент недоступен для скачивания без регистрации, однако доступен по публичной magnet-ссылке (источники с публичных трекеров). Перед использованием ссылки прочтите, пожалуйста Пользовательское соглашение, а также как можно дольше оставайтесь на раздаче! Для того, чтобы скачать сам торрент-файл (который видит больше источников), а также для того, чтобы поблагодарить релизера, вам необходимо зарегистрироваться. Если регистрироваться лень - вы можете также попробовать скачать релиз по нашим партнерским ссылкам ниже.

[underverse.su].t60817.torrent
Трекер: Зарегистрирован   [ 11.12.2015 21:55 ]  

Статус: проверено (by makkol at 11.12.2015 23:01)
Поблагодарили: пока никто не поблагодарил...
Тип торрента: публичный - доступные источники с открытых трекеров: 
Размер: 1,46 GB (занимает 0,33 DVDR, для записи нужно 1 болванка DVDR/RW)
 
 

Яндекс.Метрика powered by Sphinx


В Н И М А Н И Е
Сайт не распространяет и не хранит электронные версии произведений, а лишь бесплатно и без коммерческой выгоды (не требуя взамен платы,
SMS и т.д.) предоставляет доступ к создаваемому пользователями каталогу ссылок на торрент-файлы, которые содержат только списки хеш-сумм.
Убедительная просьба с жалобами обращаться напрямую к пользователю, разместившему торрент файл.

Вверх