Loading...
Error

Заброшенная высота [2015 г., документальный, HDTVRip]

Статистика раздачи
Размер:  770 MB   |    Зарегистрирован:  11 месяцев   |    Скачан:  1 раз

Полного источника не было: 6 дней

Сидов:  0  |  0 KB/s  ]   Личеров:  0  |  0 KB/s  ]

* - сиды/пиры с внешних источников

   
 
Автор Сообщение

матроскин Пол:Муж

10-Дек-2015 15:51

Заброшенная высота


Год выпуска: 2015
Жанр: документальный
Страна: Россия
Выпущено: Красное Тв
Сюжет фильма:
Город герой выиграв одну из самых страшных битв в истории человечества в мирной жизни проиграл. Сегодня Волгоград входит в пятерку самых бедных Российских мегаполисов. Здесь за чертой бедности живет 21% и это даже не каждый пятый волгоградец.
Качество видео: HDTVRip

Продолжительность: 00:28:39
Формат: avi
Видео: DivX 4, 854x480, 3487 kbps
Аудио: русский, оригинал, MP3 2.0, 256 kbps

Код:

General
Complete name                    : C:\Users\Ohrana\Desktop\Заброшенная высота.avi
Format                           : AVI
Format/Info                      : Audio Video Interleave
File size                        : 770 MiB
Duration                         : 28mn 39s
Overall bit rate                 : 3 756 Kbps
Writing application              : Lavf52.93.0

Video
ID                               : 0
Format                           : MPEG-4 Visual
Format profile                   : Simple@L1
Format settings, BVOP            : No
Format settings, QPel            : No
Format settings, GMC             : No warppoints
Format settings, Matrix          : Default (H.263)
Codec ID                         : DIVX
Codec ID/Info                    : Project Mayo
Codec ID/Hint                    : DivX 4
Duration                         : 28mn 39s
Bit rate                         : 3 488 Kbps
Width                            : 854 pixels
Height                           : 480 pixels
Display aspect ratio             : 16/9
Frame rate                       : 25.000 fps
Resolution                       : 24 bits
Colorimetry                      : 4:2:0
Scan type                        : Progressive
Bits/(Pixel*Frame)               : 0.340
Stream size                      : 715 MiB (93%)
Writing library                  : Lavc52.108.0

Audio
ID                               : 1
Format                           : MPEG Audio
Format version                   : Version 1
Format profile                   : Layer 3
Codec ID                         : 55
Codec ID/Hint                    : MP3
Duration                         : 28mn 39s
Bit rate mode                    : Constant
Bit rate                         : 256 Kbps
Channel(s)                       : 2 channels
Sampling rate                    : 44.1 KHz
Resolution                       : 16 bits
Stream size                      : 52.5 MiB (7%)
Alignment                        : Aligned on interleaves
Interleave, duration             : 26 ms (0.65 video frame)
Interleave, preload duration     : 52 ms
Writing library                  : LAME3.98.4

picpicpicpicpicpic
Для увеличения картинки щелкните мышкой по превью

Этот торрент недоступен для скачивания без регистрации, однако доступен по публичной magnet-ссылке (источники с публичных трекеров). Перед использованием ссылки прочтите, пожалуйста Пользовательское соглашение, а также как можно дольше оставайтесь на раздаче! Для того, чтобы скачать сам торрент-файл (который видит больше источников), а также для того, чтобы поблагодарить релизера, вам необходимо зарегистрироваться. Если регистрироваться лень - вы можете также попробовать скачать релиз по нашим партнерским ссылкам ниже.

[underverse.su].t60782.torrent
Трекер: Зарегистрирован   [ 10.12.2015 15:51 ]  

Статус: проверено (by матроскин at 10.12.2015 15:51)
Поблагодарили: пока никто не поблагодарил...
Тип торрента: публичный - доступные источники с открытых трекеров: 
Размер: 770 MB (занимает 0,17 DVDR, для записи нужно 1 болванка DVDR/RW)
 
 
Похожие темы
Форум Тема Автор Торрент Отв. Посл. сооб.
Зарубежное кино [DVDRip, Low-Res HDRip, и т.д.] Заброшенная шахта / Abandoned Mine (Джефф Чемберлен) [2013 г., Ужасы, Триллер, Детектив, HDTVRip] MVO (RUS) Ведьмочка
1 | 0

0 | 520

12

10.08.2014 00:26

Зарубежное кино [HDDVDRip / BDRip / WEB-DL / HDTV 1080/720р] Заброшенная шахта / Abandoned Mine (Джефф Чемберлен) [2013 г., Ужасы, Триллер, Детектив, HDTV 1080p] MVO (RUS) Ведьмочка
2 | 0

1 | 538

5

23.08.2014 18:20

матроскин Пол:Муж

10-Дек-2015 15:52




Яндекс.Метрика powered by Sphinx


В Н И М А Н И Е
Сайт не распространяет и не хранит электронные версии произведений, а лишь бесплатно и без коммерческой выгоды (не требуя взамен платы,
SMS и т.д.) предоставляет доступ к создаваемому пользователями каталогу ссылок на торрент-файлы, которые содержат только списки хеш-сумм.
Убедительная просьба с жалобами обращаться напрямую к пользователю, разместившему торрент файл.

Вверх