Loading...
Error

"У соловецкого камня" [2015 г., документальный, HDTVRip]

Статистика раздачи
Размер:  228 MB   |    Зарегистрирован:  11 месяцев   |    Скачан:  0 раз
Сидов:  1  |  0 KB/s  ]   Личеров:  0  |  0 KB/s  ]

* - сиды/пиры с внешних источников

   
 
Автор Сообщение

матроскин Пол:Муж

10-Дек-2015 09:36

"У соловецкого камня"


Год выпуска: 2015
Жанр: документальный
Страна: Россия
Выпущено: КПРФ- Тв
Сюжет фильма:
На Лубянке возле «Соловецкого камня» прошла акция памяти жертв политических репрессий. Но участники зачитывали списки погибших только в 30-е годы XX века. Почему в День политических репрессий никто не вспомнил о других жертвах произвола нынешней и царской власти, узнавали Иван Жушман, Алексей Шеляков и Николай Прокопенко
Качество видео: HDTVRip

Продолжительность: 00:07:13
Формат: avi
Видео: DivX 4, 1280x720, 4136 kbps
Аудио: русский, оригинал, MP3 2.0, 256 kbps

Код:

General
Complete name                    : C:\Users\Ohrana\Desktop\У «Словецкого камня».avi
Format                           : AVI
Format/Info                      : Audio Video Interleave
File size                        : 228 MiB
Duration                         : 7mn 13s
Overall bit rate                 : 4 404 Kbps
Writing application              : Lavf52.93.0

Video
ID                               : 0
Format                           : MPEG-4 Visual
Format profile                   : Simple@L1
Format settings, BVOP            : No
Format settings, QPel            : No
Format settings, GMC             : No warppoints
Format settings, Matrix          : Default (H.263)
Codec ID                         : DIVX
Codec ID/Info                    : Project Mayo
Codec ID/Hint                    : DivX 4
Duration                         : 7mn 13s
Bit rate                         : 4 136 Kbps
Width                            : 1 280 pixels
Height                           : 720 pixels
Display aspect ratio             : 16/9
Frame rate                       : 25.000 fps
Resolution                       : 24 bits
Colorimetry                      : 4:2:0
Scan type                        : Progressive
Bits/(Pixel*Frame)               : 0.180
Stream size                      : 214 MiB (94%)
Writing library                  : Lavc52.108.0

Audio
ID                               : 1
Format                           : MPEG Audio
Format version                   : Version 1
Format profile                   : Layer 3
Codec ID                         : 55
Codec ID/Hint                    : MP3
Duration                         : 7mn 13s
Bit rate mode                    : Constant
Bit rate                         : 256 Kbps
Channel(s)                       : 2 channels
Sampling rate                    : 44.1 KHz
Resolution                       : 16 bits
Stream size                      : 13.2 MiB (6%)
Alignment                        : Aligned on interleaves
Interleave, duration             : 26 ms (0.65 video frame)
Writing library                  : LAME3.98.4

picpicpicpicpicpic
Для увеличения картинки щелкните мышкой по превью

Этот торрент недоступен для скачивания без регистрации, однако доступен по публичной magnet-ссылке (источники с публичных трекеров). Перед использованием ссылки прочтите, пожалуйста Пользовательское соглашение, а также как можно дольше оставайтесь на раздаче! Для того, чтобы скачать сам торрент-файл (который видит больше источников), а также для того, чтобы поблагодарить релизера, вам необходимо зарегистрироваться. Если регистрироваться лень - вы можете также попробовать скачать релиз по нашим партнерским ссылкам ниже.

[underverse.su].t60768.torrent
Трекер: Зарегистрирован   [ 10.12.2015 09:36 ]  

Статус: проверено (by матроскин at 10.12.2015 09:38)
Поблагодарили: пока никто не поблагодарил...
Тип торрента: публичный - доступные источники с открытых трекеров: 
Размер: 228 MB (занимает 0,05 DVDR, для записи нужно 1 болванка DVDR/RW)
 
 

матроскин Пол:Муж

10-Дек-2015 09:38




Яндекс.Метрика powered by Sphinx


В Н И М А Н И Е
Сайт не распространяет и не хранит электронные версии произведений, а лишь бесплатно и без коммерческой выгоды (не требуя взамен платы,
SMS и т.д.) предоставляет доступ к создаваемому пользователями каталогу ссылок на торрент-файлы, которые содержат только списки хеш-сумм.
Убедительная просьба с жалобами обращаться напрямую к пользователю, разместившему торрент файл.

Вверх