Loading...
Error

Контракт / The Contract (Ник Ауэрбах) [2015 г., боевик, триллер, криминал, HDRip] VO

Статистика раздачи
Размер:  1,45 GB   |    Зарегистрирован:  11 месяцев   |    Скачан:  34 раза

Полного источника не было: 5 месяцев 18 дней

Сидов:  0  |  0 KB/s  ]   Личеров:  0  |  0 KB/s  ]

* - сиды/пиры с внешних источников

   
 
Автор Сообщение

makkol Пол:Муж

09-Дек-2015 23:09

Контракт / The Contract


Год выпуска: 2015
Жанр: боевик, триллер, криминал
Производство: Великобритания [Scanner-Rhodes Productions, Robert Fucilla Company]
Режиссер: Ник Ауэрбах
В ролях: Дэниэл Уэбб, Изабелль Аллен, Сара Армстронг, Патрик Райкарт, Никки Эванс, Пенни Джудд, Роберт Фусилла, Джек Брэйди, Джонатан Родс
Сюжет фильма:
Два мира сталкиваются, когда финансист возвращается к себе домой и находит его заселенным чужими людьми.

  • Мировая премьера: Январь 2016


Качество видео: HDRip

Продолжительность: 01:38:35
Формат: AVI
Видео: XviD, 720x304 (2.35:1), 25.000 fps, 1910 kbps
Аудио: русский, любительский одноголосый закадровый (Xixidok), AC3 2.0, 48 kHz, 192 kbps

Код:

Формат : AVI
Формат/Информация : Audio Video Interleave
Размер файла : 1,45 Гбайт
Продолжительность : 1 ч. 38 м.
Общий поток : 2112 Кбит/сек
Программа кодирования : VirtualDubMod 1.5.10.2 (build 2540/release)
Библиотека кодирования : VirtualDubMod build 2540/release

Видео
Идентификатор : 0
Формат : MPEG-4 Visual
Профиль формата : Advanced Simple@L5
Параметр BVOP формата : 1
Параметр QPel формата : Нет
Параметр GMC формата : Без точки перехода
Параметр матрицы формата : Default (MPEG)
Идентификатор кодека : XVID
Идентификатор кодека/Подсказка : XviD
Продолжительность : 1 ч. 38 м.
Битрейт : 1910 Кбит/сек
Ширина : 720 пикселей
Высота : 304 пикселя
Соотношение сторон : 2,35:1
Частота кадров : 25,000 кадров/сек
Цветовое пространство : YUV
Субдискретизация насыщенности : 4:2:0
Битовая глубина : 8 бит
Тип развёртки : Прогрессивная
Метод сжатия : С потерями
Бит/(Пиксели*Кадры) : 0.349
Размер потока : 1,32 Гбайт (90%)
Библиотека кодирования : XviD 1.2.1 (UTC 2008-12-04)

Аудио
Идентификатор : 1
Формат : AC-3
Формат/Информация : Audio Coding 3
Расширение режима : CM (complete main)
Параметр Endianness формата : Big
Идентификатор кодека : 2000
Продолжительность : 1 ч. 38 м.
Вид битрейта : Постоянный
Битрейт : 192 Кбит/сек
Каналы : 2 канала
Расположение каналов : Front: L R
Частота : 48,0 КГц
Частота кадров : 31,250 кадров/сек (1536 spf)
Метод сжатия : С потерями
Размер потока : 135 Мбайт (9%)
Выравнивание : Разделение по промежуткам
Продолжительность промежутка : 40 мс. (1,00 видеокадр)
Время предзагрузки промежутка : 500 мс.
picpicpicpicpic
Для увеличения картинки щелкните мышкой по превью

Этот торрент недоступен для скачивания без регистрации, однако доступен по публичной magnet-ссылке (источники с публичных трекеров). Перед использованием ссылки прочтите, пожалуйста Пользовательское соглашение, а также как можно дольше оставайтесь на раздаче! Для того, чтобы скачать сам торрент-файл (который видит больше источников), а также для того, чтобы поблагодарить релизера, вам необходимо зарегистрироваться. Если регистрироваться лень - вы можете также попробовать скачать релиз по нашим партнерским ссылкам ниже.

[underverse.su].t60763.torrent
Трекер: Зарегистрирован   [ 09.12.2015 23:09 ]  

Статус: проверено (by makkol at 11.12.2015 13:21)
Поблагодарили: пока никто не поблагодарил...
Тип торрента: публичный - доступные источники с открытых трекеров: 
Размер: 1,45 GB (занимает 1/3 DVDR, для записи нужно 1 болванка DVDR/RW)
 
 
Похожие темы
Форум Тема Автор Торрент Отв. Посл. сооб.
Зарубежное кино [DVDRip, Low-Res HDRip, и т.д.] Контракт / The Job (Шем Биттерман) [2010 г., триллер, комедия, драма DVDRip] LAMA
0 | 0

2 | 763

3

22.11.2010 10:11


Яндекс.Метрика powered by Sphinx


В Н И М А Н И Е
Сайт не распространяет и не хранит электронные версии произведений, а лишь бесплатно и без коммерческой выгоды (не требуя взамен платы,
SMS и т.д.) предоставляет доступ к создаваемому пользователями каталогу ссылок на торрент-файлы, которые содержат только списки хеш-сумм.
Убедительная просьба с жалобами обращаться напрямую к пользователю, разместившему торрент файл.

Вверх