Loading...
Error

Волна / Bolgen (Роар Утхауг) [2015 г., боевик, триллер, драма, HDRip] MVO

Статистика раздачи
Размер:  1,37 GB   |    Зарегистрирован:  11 месяцев   |    Скачан:  55 раз

Полного источника не было: 4 часа

Сидов:  0  |  0 KB/s  ]   Личеров:  0  |  0 KB/s  ]

* - сиды/пиры с внешних источников

   
 
Автор Сообщение

makkol Пол:Муж

09-Дек-2015 13:31

Волна / Bølgen


Год выпуска: 2015
Жанр: боевик, триллер, драма
Производство: Норвегия [Fantefilm, Film i Väst]
Режиссер: Роар Утхауг
В ролях: Томас Бо Ларсен, Кристоффер Йонер, Эни Даль Торп, Фридтьов Сохейм, Йонас Хофф Офтебро, Ладо Хаджик, Артур Бернинг, Эдит Хогенруд-Сэнд, Элли Харбоа, Метта Агнета Хорн
Сюжет фильма:
Сигнал тревоги разносится над спящим городом. То, чего так боялись сейсмологи, сбылось — сильнейший тектонический сдвиг вызывает обрушение горного массива. Теперь гигантское смертоносное цунами движется прямо на людей. Опытный геолог Кристиан Айкорд оказывается в эпицентре самого страшного кошмара своей жизни.

  • Мировая премьера: 16 августа 2015
  • Российская премьера: 10 декабря 2015


Качество видео: HDRip

Продолжительность: 01:44:55
Формат: AVI
Видео: XviD, 720x304 (2.35:1), 24.000 fps, 1407 kbps
Аудио: русский, любительский многоголосый закадровый, AC3 5.1, 48 kHz, 448 kbps

Код:

General
Format                         : AVI
Format/Info                    : Audio Video Interleave
File size                      : 1.37 GiB
Duration                       : 1h 45mn
Overall bit rate               : 1 866 Kbps
Writing application            : VirtualDubMod 1.5.10.2 (build 2540/release)
Writing library                : VirtualDubMod build 2540/release

Video
ID                             : 0
Format                         : MPEG-4 Visual
Format profile                 : Advanced Simple@L5
Format settings, BVOP          : 2
Format settings, QPel          : No
Format settings, GMC           : No warppoints
Format settings, Matrix        : Default (MPEG)
Codec ID                       : XVID
Codec ID/Hint                  : XviD
Duration                       : 1h 45mn
Bit rate                       : 1 407 Kbps
Width                          : 720 pixels
Height                         : 304 pixels
Display aspect ratio           : 2.35:1
Frame rate                     : 24.000 fps
Color space                    : YUV
Chroma subsampling             : 4:2:0
Bit depth                      : 8 bits
Scan type                      : Progressive
Compression mode               : Lossy
Bits/(Pixel*Frame)             : 0.268
Stream size                    : 1.04 GiB (75%)
Writing library                : XviD 1.2.1 (UTC 2008-12-04)

Audio
ID                             : 1
Format                         : AC-3
Format/Info                    : Audio Coding 3
Mode extension                 : CM (complete main)
Format settings, Endianness    : Big
Codec ID                       : 2000
Duration                       : 1h 45mn
Bit rate mode                  : Constant
Bit rate                       : 448 Kbps
Channel(s)                     : 6 channels
Channel positions              : Front: L C R, Side: L R, LFE
Sampling rate                  : 48.0 KHz
Compression mode               : Lossy
Stream size                    : 337 MiB (24%)
Alignment                      : Split accross interleaves
Interleave, duration           : 42 ms (1.00 video frame)
Interleave, preload duration   : 500 ms
Paradox & Omskbird records
Перевод: Tishsh Tishsh
Озвучивание: Анна Тух, Константин Погодаев, Павел Ярощик, Алёна Соколова, Максим Максимов
Звукорежиссер: Павел Квентов
picpicpicpicpic
Для увеличения картинки щелкните мышкой по превью

Этот торрент недоступен для скачивания без регистрации, однако доступен по публичной magnet-ссылке (источники с публичных трекеров). Перед использованием ссылки прочтите, пожалуйста Пользовательское соглашение, а также как можно дольше оставайтесь на раздаче! Для того, чтобы скачать сам торрент-файл (который видит больше источников), а также для того, чтобы поблагодарить релизера, вам необходимо зарегистрироваться. Если регистрироваться лень - вы можете также попробовать скачать релиз по нашим партнерским ссылкам ниже.

[underverse.su].t60751.torrent
Трекер: Зарегистрирован   [ 09.12.2015 13:31 ]  

Статус: проверено (by makkol at 11.12.2015 13:17)
Поблагодарили: 2 человека
Тип торрента: публичный - доступные источники с открытых трекеров: 
Размер: 1,37 GB (занимает 0,31 DVDR, для записи нужно 1 болванка DVDR/RW)
 
 
Похожие темы
Форум Тема Автор Торрент Отв. Посл. сооб.
T Зарубежное кино [DVDRip, Low-Res HDRip, и т.д.] Волна / Bolgen (Роар Утхауг) [2015 г., боевик, триллер, драма, HDRip] Dub + Original makkol
0 | 0

0 | 611

46

27.12.2015 22:58

T Зарубежное кино [DVDRip, Low-Res HDRip, и т.д.] Волна / Bolgen (Роар Утхауг / Roar Uthaug) [2015 г., боевик, триллер, драма, HDRip] Dub (iTunes) 90ytr90
12 | 1

0 | 385

17

18.02.2016 15:48

T Зарубежное кино [DVDRip, Low-Res HDRip, и т.д.] Волна / Bolgen (Роар Утхауг / Roar Uthaug) [2015 г., боевик, триллер, драма, BDRip-AVC] Dub (iTunes) + Sub (Rus) 90ytr90
49 | 2

0 | 406

6

18.02.2016 15:55

T Зарубежное кино [DVDRip, Low-Res HDRip, и т.д.] Волна / Bolgen (Роар Утхауг / Roar Uthaug) [2015 г., боевик, триллер, драма, BDRip-AVC] Dub (iTunes) + Original (Nor) + Subs 90ytr90
15 | 0

0 | 485

8

18.02.2016 16:14

Зарубежное кино [HDDVDRip / BDRip / WEB-DL / HDTV 1080/720р] Волна / Bolgen (Роар Утхауг) [2015 г., боевик, триллер, драма, BDRip 1080p] MVO + Original makkol
16 | 1

0 | 497

22

09.12.2015 13:44

T Зарубежное кино [HDDVDRip / BDRip / WEB-DL / HDTV 1080/720р] Волна / Bolgen (Роар Утхауг) [2015 г., боевик, триллер, драма, BDRip 1080p] Dub + Original makkol
5 | 1

0 | 745

24

27.12.2015 23:10

T Зарубежное кино [HDDVDRip / BDRip / WEB-DL / HDTV 1080/720р] Волна / Bolgen (Роар Утхауг / Roar Uthaug) [2015 г., боевик, триллер, драма, BDRip 720p] Dub (iTunes) + Original (Nor) + Sub (Eng, Nor) 90ytr90
19 | 0

0 | 460

13

18.02.2016 16:03


Яндекс.Метрика powered by Sphinx


В Н И М А Н И Е
Сайт не распространяет и не хранит электронные версии произведений, а лишь бесплатно и без коммерческой выгоды (не требуя взамен платы,
SMS и т.д.) предоставляет доступ к создаваемому пользователями каталогу ссылок на торрент-файлы, которые содержат только списки хеш-сумм.
Убедительная просьба с жалобами обращаться напрямую к пользователю, разместившему торрент файл.

Вверх