Loading...
Error

Попрощайся со всем этим / Goodbye to All That (Энгус МакЛахлан) [2014 г., драма, мелодрама, комедия, HDRip] DVO

Статистика раздачи
Размер:  1,37 GB   |    Зарегистрирован:  1 год   |    Скачан:  4 раза

Полного источника не было: 4 месяца 21 день

Сидов:  0  |  0 KB/s  ]   Личеров:  0  |  0 KB/s  ]

* - сиды/пиры с внешних источников

   
 
Автор Сообщение

makkol Пол:Муж

07-Дек-2015 22:25

Попрощайся со всем этим / Goodbye to All That


Год выпуска: 2014
Жанр: драма, мелодрама, комедия
Производство: США [Epoch Films, RC Pictures]
Режиссер: Энгус МакЛахлан
В ролях: Пол Шнайдер, Мелани Лински, Одри П. Скотт, Анна Кэмп, Хэзер Грэм, Хезер Лоулесс, Эшли Хиншоу, Майкл Чернус, Эми Седарис, Селия Уэстон
Сюжет фильма:
В жизни супружеской пары наступило тяжелое время, их отношения исчерпали себя. Супруга долгое время не могла решиться на развод, она не знала, как это переживет их совместная дочь. Мужчина был поражен таким решением, он не замечал, что в их отношениях наступил кризис. Сначала он сильно переживал расставание с семьей, но вскоре нашел плюсы своего одинокого существования. Теперь он может знакомиться с женщинами и приглашать их к себе в гости. Эти свидания на одну ночь переплетаются с его любовью к дочери.

  • Мировая премьера: 17 апреля 2014


Качество видео: HDRip

Продолжительность: 01:26:39
Формат: AVI
Видео: XviD, 720x400 (16:9), 23.976 fps, 1991 kbps
Аудио: русский, любительский двухголосый закадровый (Parovoz Production), AC3 2.0, 48 kHz, 256 kbps

Код:

Общее
Полное имя                               : Poprasshaisya.So.Vsem.3tim.avi
Формат                                   : AVI
Формат/Информация                        : Audio Video Interleave
Размер файла                             : 1,37 Гбайт
Продолжительность                        : 1 ч. 26 м.
Общий поток                              : 2257 Кбит/сек
Программа кодирования                    : VirtualDubMod 1.5.10.3 | www.virtualdub-fr.org || (build 2550/release)

Видео
Идентификатор                            : 0
Формат                                   : MPEG-4 Visual
Профиль формата                          : Advanced Simple@L5
Параметр BVOP формата                    : 2
Параметр QPel формата                    : Нет
Параметр GMC формата                     : Без точки перехода
Параметр матрицы формата                 : Default (MPEG)
Идентификатор кодека                     : XVID
Идентификатор кодека/Подсказка           : XviD
Продолжительность                        : 1 ч. 26 м.
Битрейт                                  : 1991 Кбит/сек
Ширина                                   : 720 пикселей
Высота                                   : 400 пикселей
Соотношение сторон                       : 16:9
Частота кадров                           : 23,976 кадра/сек
Цветовое пространство                    : YUV
Субдискретизация насыщенности            : 4:2:0
Битовая глубина                          : 8 бит
Тип развёртки                            : Прогрессивная
Метод сжатия                             : С потерями
Бит/(Пиксели*Кадры)                      : 0.288
Размер потока                            : 1,21 Гбайт (88%)
Библиотека кодирования                   : XviD 1.2.1 (UTC 2008-12-04)

Аудио
Идентификатор                            : 1
Формат                                   : AC-3
Формат/Информация                        : Audio Coding 3
Расширение режима                        : CM (complete main)
Параметр Endianness формата              : Big
Идентификатор кодека                     : 2000
Продолжительность                        : 1 ч. 26 м.
Вид битрейта                             : Постоянный
Битрейт                                  : 256 Кбит/сек
Каналы                                   : 2 канала
Расположение каналов                     : Front: L R
Частота                                  : 48,0 КГц
Метод сжатия                             : С потерями
Размер потока                            : 159 Мбайт (11%)
Выравнивание                             : Разделение по промежуткам
Продолжительность промежутка             : 42  мс. (1,00 видеокадр)
Время предзагрузки промежутка            : 500  мс.
Релиз группы:

picpicpicpicpic
Для увеличения картинки щелкните мышкой по превью

Этот торрент недоступен для скачивания без регистрации, однако доступен по публичной magnet-ссылке (источники с публичных трекеров). Перед использованием ссылки прочтите, пожалуйста Пользовательское соглашение, а также как можно дольше оставайтесь на раздаче! Для того, чтобы скачать сам торрент-файл (который видит больше источников), а также для того, чтобы поблагодарить релизера, вам необходимо зарегистрироваться. Если регистрироваться лень - вы можете также попробовать скачать релиз по нашим партнерским ссылкам ниже.

[underverse.su].t60712.torrent
Трекер: Зарегистрирован   [ 07.12.2015 22:25 ]  

Статус: проверено (by makkol at 08.12.2015 11:29)
Поблагодарили: пока никто не поблагодарил...
Тип торрента: публичный - доступные источники с открытых трекеров: 
Размер: 1,37 GB (занимает 0,31 DVDR, для записи нужно 1 болванка DVDR/RW)
 
 
Похожие темы
Форум Тема Автор Торрент Отв. Посл. сооб.
Зарубежное кино [HDDVDRip / BDRip / WEB-DL / HDTV 1080/720р] Попрощайся со всем этим / Goodbye to All That (Энгус МакЛахлан) [2014 г., драма, мелодрама, комедия, BDRip 1080p] DVO + Original makkol
1 | 0

0 | 372

1

07.12.2015 22:36


Яндекс.Метрика powered by Sphinx


В Н И М А Н И Е
Сайт не распространяет и не хранит электронные версии произведений, а лишь бесплатно и без коммерческой выгоды (не требуя взамен платы,
SMS и т.д.) предоставляет доступ к создаваемому пользователями каталогу ссылок на торрент-файлы, которые содержат только списки хеш-сумм.
Убедительная просьба с жалобами обращаться напрямую к пользователю, разместившему торрент файл.

Вверх