Loading...
Error

Лиза-лиса / Liza, a rokatunder / Liza, the Fox-Fairy (Карой Уй Месарош) [2015 г., фэнтези, мелодрама, комедия, HDRip] VO

Статистика раздачи
Размер:  1,46 GB   |    Зарегистрирован:  11 месяцев   |    Скачан:  41 раз

Полного источника не было: 4 дня

Сидов:  0  |  0 KB/s  ]   Личеров:  0  |  0 KB/s  ]

* - сиды/пиры с внешних источников

   
 
Автор Сообщение

makkol Пол:Муж

05-Дек-2015 23:03

Лиза-лиса / Liza, a rokatunder / Liza, the Fox-Fairy


Год выпуска: 2015
Жанр: фэнтези, мелодрама, комедия
Производство: Венгрия [Filmteam, Focus - Fox Studio, Origo Film Group]
Режиссер: Карой Уй Месарош
В ролях: Моника Бальшаи, Сабольч Беде Фазекаш, Дэвид Сакурай, Зольтан Шмид, Антал Черна, Пирошка Мольнар, Габор Ревицки, Марианн Кочиш, Аги Губик, Лехель Ковач
Сюжет фильма:
Лиза — милая работящая девушка, почти все свое время отдает уходу за парализованной старухой-астматичкой, а в свободные минуты читает японские романы и грезит о любви. Единственный друг Лизы — призрак покойной японской поп-звезды Томми Тани, парень очень верный, но и очень ревнивый. Делить внимание Лизы с кем-то другим — не по Томми. Его первой жертвой становится старая Марта — и это только начало…

  • Мировая премьера: 19 февраля 2015


Качество видео: HDRip

Продолжительность: 01:37:53
Формат: AVI
Видео: XviD, 720x304 (2.35:1), 24.000 fps, 1867 kbps
Аудио: русский, любительский одноголосый закадровый, AC3 2.0, 48 kHz, 256 kbps

Код:

Общее
Формат : AVI
Формат/Информация : Audio Video Interleave
Размер файла : 1,46 Гбайт
Продолжительность : 1 ч. 37 м.
Общий поток : 2133 Кбит/сек
Программа кодирования : VirtualDubMod 1.5.10.3 | www.virtualdub-fr.org || (build 2550/release)
Библиотека кодирования : VirtualDubMod build 2550/release

Видео
Идентификатор : 0
Формат : MPEG-4 Visual
Профиль формата : Advanced Simple@L5
Параметр BVOP формата : 1
Параметр QPel формата : Нет
Параметр GMC формата : Без точки перехода
Параметр матрицы формата : Выборочная
Идентификатор кодека : XVID
Идентификатор кодека/Подсказка : XviD
Продолжительность : 1 ч. 37 м.
Битрейт : 1867 Кбит/сек
Ширина : 720 пикселей
Высота : 304 пикселя
Соотношение сторон : 2,35:1
Частота кадров : 24,000 кадра/сек
Цветовое пространство : YUV
Субдискретизация насыщенности : 4:2:0
Битовая глубина : 8 бит
Тип развёртки : Прогрессивная
Метод сжатия : С потерями
Бит/(Пиксели*Кадры) : 0.355
Размер потока : 1,28 Гбайт (88%)
Библиотека кодирования : XviD 73

Аудио
Идентификатор : 1
Формат : AC-3
Формат/Информация : Audio Coding 3
Расширение режима : CM (complete main)
Идентификатор кодека : 2000
Продолжительность : 1 ч. 37 м.
Вид битрейта : Постоянный
Битрейт : 256 Кбит/сек
Каналы : 2 канала
Расположение каналов : Front: L R
Частота : 48,0 КГц
Битовая глубина : 16 бит
Метод сжатия : С потерями
Размер потока : 179 Мбайт (12%)
Выравнивание : Разделение по промежуткам
Продолжительность промежутка : 42 мс. (1,00 видеокадр)
Время предзагрузки промежутка : 500 мс.
picpicpicpicpic
Для увеличения картинки щелкните мышкой по превью

Этот торрент недоступен для скачивания без регистрации, однако доступен по публичной magnet-ссылке (источники с публичных трекеров). Перед использованием ссылки прочтите, пожалуйста Пользовательское соглашение, а также как можно дольше оставайтесь на раздаче! Для того, чтобы скачать сам торрент-файл (который видит больше источников), а также для того, чтобы поблагодарить релизера, вам необходимо зарегистрироваться. Если регистрироваться лень - вы можете также попробовать скачать релиз по нашим партнерским ссылкам ниже.

[underverse.su].t60667.torrent
Трекер: Зарегистрирован   [ 05.12.2015 23:03 ]  

Статус: проверено (by makkol at 08.12.2015 11:19)
Поблагодарили: 1 человек
Тип торрента: публичный - доступные источники с открытых трекеров: 
Размер: 1,46 GB (занимает 1/3 DVDR, для записи нужно 1 болванка DVDR/RW)
 
 

Яндекс.Метрика powered by Sphinx


В Н И М А Н И Е
Сайт не распространяет и не хранит электронные версии произведений, а лишь бесплатно и без коммерческой выгоды (не требуя взамен платы,
SMS и т.д.) предоставляет доступ к создаваемому пользователями каталогу ссылок на торрент-файлы, которые содержат только списки хеш-сумм.
Убедительная просьба с жалобами обращаться напрямую к пользователю, разместившему торрент файл.

Вверх