Loading...
Error

Новые русские 2 (Кирилл Плетнёв, Владлена Санду, Светлана Самошина) [2015 г., комедия, триллер, драма, WEBRip]

Статистика раздачи
Размер:  1,45 GB   |    Зарегистрирован:  1 год   |    Скачан:  97 раз

Полного источника не было: 1 день 19 часов

Сидов:  0  |  0 KB/s  ]   Личеров:  0  |  0 KB/s  ]

* - сиды/пиры с внешних источников

   
 
Автор Сообщение

makkol Пол:Муж

05-Дек-2015 09:54

Новые русские 2


Год выпуска: 2015
Жанр: комедия, триллер, драма
Производство: Россия [Utopia Pictures]
Режиссер: Кирилл Плетнёв, Владлена Санду, Светлана Самошина
В ролях: Анна Уколова, Инга Оболдина, Мария Шульга, Альфия Закирова, Анастасия Белоусова, Алексей Сергеев, Искандер Шайхутдинов, Эдуард Кашпоров, Василиса Земскова, Александр Яценко
Сюжет фильма:
Романтическая эротика, жизнь как триллер, жёсткая криминально-психологическая драма, головокружительная черная комедия и интимный киноэскиз о непостоянстве красивых актрис — новая коллекция молодого и прогрессивного российского кино.

  • Российская премьера: 17 сентября 2015


Качество видео: WEBRip

Продолжительность: 01:42:25
Формат: AVI
Видео: XviD, 720x400 (16:9), 30.000 fps, 1894 kbps
Аудио: русский, оригинал, AC3 2.0, 48 kHz, 128 kbps

Код:

Формат                                   : AVI
Формат/Информация                        : Audio Video Interleave
Размер файла                             : 1,45 Гбайт
Продолжительность                        : 1 ч. 42 м.
Общий поток                              : 2034 Кбит/сек
Программа кодирования                    : VirtualDubMod 1.5.10.3 | www.virtualdub-fr.org || (build 2550/release)
Библиотека кодирования                   : VirtualDubMod build 2550/release

Видео
Идентификатор                            : 0
Формат                                   : MPEG-4 Visual
Профиль формата                          : Advanced Simple@L5
Параметр BVOP формата                    : 2
Параметр QPel формата                    : Нет
Параметр GMC формата                     : Без точки перехода
Параметр матрицы формата                 : Default (MPEG)
Идентификатор кодека                     : XVID
Идентификатор кодека/Подсказка           : XviD
Продолжительность                        : 1 ч. 42 м.
Битрейт                                  : 1894 Кбит/сек
Ширина                                   : 720 пикселей
Высота                                   : 400 пикселей
Соотношение сторон                       : 16:9
Частота кадров                           : 30,000 кадров/сек
Цветовое пространство                    : YUV
Субдискретизация насыщенности            : 4:2:0
Битовая глубина                          : 8 бит
Тип развёртки                            : Прогрессивная
Метод сжатия                             : С потерями
Бит/(Пиксели*Кадры)                      : 0.219
Размер потока                            : 1,35 Гбайт (93%)
Библиотека кодирования                   : XviD 1.2.1 (UTC 2008-12-04)

Аудио
Идентификатор                            : 1
Формат                                   : AC-3
Формат/Информация                        : Audio Coding 3
Расширение режима                        : CM (complete main)
Параметр Endianness формата              : Big
Идентификатор кодека                     : 2000
Продолжительность                        : 1 ч. 42 м.
Вид битрейта                             : Постоянный
Битрейт                                  : 128 Кбит/сек
Каналы                                   : 2 канала
Расположение каналов                     : Front: L R
Частота                                  : 48,0 КГц
Битовая глубина                          : 16 бит
Метод сжатия                             : С потерями
Размер потока                            : 93,8 Мбайт (6%)
Выравнивание                             : Разделение по промежуткам
Продолжительность промежутка             : 33  мс. (1,00 видеокадр)
Время предзагрузки промежутка            : 500  мс.
picpicpicpicpic
Для увеличения картинки щелкните мышкой по превью

Этот торрент недоступен для скачивания без регистрации, однако доступен по публичной magnet-ссылке (источники с публичных трекеров). Перед использованием ссылки прочтите, пожалуйста Пользовательское соглашение, а также как можно дольше оставайтесь на раздаче! Для того, чтобы скачать сам торрент-файл (который видит больше источников), а также для того, чтобы поблагодарить релизера, вам необходимо зарегистрироваться. Если регистрироваться лень - вы можете также попробовать скачать релиз по нашим партнерским ссылкам ниже.

[underverse.su].t60639.torrent
Трекер: Зарегистрирован   [ 05.12.2015 09:54 ]  

Статус: проверено (by makkol at 08.12.2015 11:15)
Поблагодарили: 1 человек
Тип торрента: публичный - доступные источники с открытых трекеров: 
Размер: 1,45 GB (занимает 1/3 DVDR, для записи нужно 1 болванка DVDR/RW)
 
 
Похожие темы
Форум Тема Автор Торрент Отв. Посл. сооб.
T Наше кино [DVDRip, Low-Res HDRip, и т.д.] Новые русские (Камила Сафина, Григорий Добрыгин, Оксана Михеева, Кирилл Плетнёв, Жора Крыжовников) [2015 г., комедия, триллер, фантастика, драма, WEB-DLRip] makkol
50 | 1

0 | 1105

124

28.11.2015 10:31

Другие фильмы Новые русские сенсации. Первые леди Новороссии. [2014 г., документальный, TVRip] матроскин
0 | 0

2 | 626

19

03.02.2015 22:03

Другие фильмы Новые русские сенсации. Исповедь рабыни Тимошенко [2014 г., документальный, TVRip] матроскин
0 | 0

2 | 642

9

13.02.2015 11:03

Другие фильмы Новые русские сенсации. Украина в законе [2015 г., документальный, TVRip] матроскин
0 | 0

2 | 1224

14

28.02.2015 06:19

Другие фильмы Новые русские сенсации. Майдан. Как заказать Украину. [2015 г., документальный, TVRip] матроскин
0 | 0

2 | 1021

15

22.02.2015 17:20

T Наше кино [HDDVDRip / BDRip / WEB-DL / HDTV 1080/720р] Новые русские (Камила Сафина, Григорий Добрыгин, Оксана Михеева, Кирилл Плетнёв, Жора Крыжовников) [2015 г., комедия, триллер, фантастика, драма, WEB-DL 1080p] makkol
21 | 1

0 | 1294

81

28.11.2015 10:40


Яндекс.Метрика powered by Sphinx


В Н И М А Н И Е
Сайт не распространяет и не хранит электронные версии произведений, а лишь бесплатно и без коммерческой выгоды (не требуя взамен платы,
SMS и т.д.) предоставляет доступ к создаваемому пользователями каталогу ссылок на торрент-файлы, которые содержат только списки хеш-сумм.
Убедительная просьба с жалобами обращаться напрямую к пользователю, разместившему торрент файл.

Вверх