Loading...
Error

Ловушка для привидения / Gespensterjager (Тоби Бауманн) [2015 г., фэнтези, комедия, семейный, HDRip] DVO

Статистика раздачи
Размер:  1,46 GB   |    Зарегистрирован:  1 год   |    Скачан:  43 раза

Полного источника не было: 6 месяцев

Сидов:  0  |  0 KB/s  ]   Личеров:  0  |  0 KB/s  ]

* - сиды/пиры с внешних источников

   
 
Автор Сообщение

makkol Пол:Муж

03-Дек-2015 23:30

Ловушка для привидения / Gespensterjäger


Год выпуска: 2015
Жанр: фэнтези, комедия, семейный
Производство: Германия , Австрия , Ирландия [Fish Blowing Bubbles, Immer Wieder Gerne Film, Lotus Film]
Режиссер: Тоби Бауманн
В ролях: Анке Энгельке, Майло Паркер, Бастиан Пастевка, Каролине Херфурт, Кристиан Трамиц, Кристиан Ульмен, Юлия Кошиц, Руби О. Фи, Эми Хубермэн, Бибиан Целлер
Сюжет фильма:
История 11-летнего одинокого Тома. После встречи с очаровательным упитанным привидением Хьюго в подвале своего дома жизнь мальчика изменится самым удивительным образом. Ему придется проявить истинную храбрость и на пару с охотницей за привидениями Хэтти помочь Хьюго вернуться к себе домой. Для этого героям нужно пройти через массу препятствий, чтобы уничтожить Древний Дух Льда, который живет в доме Хьюго, и грозит повергнуть весь город в вечную мерзлоту. Но для того, чтобы совершить подвиги, Тому и Хэтти нужно будет заглянуть к себе в сердце…

  • Мировая премьера: 2 апреля 2015


Качество видео: HDRip

Продолжительность: 01:38:48
Формат: AVI
Видео: XviD, 720x304 (2.35:1), 23.976 fps, 1907 kbps
Аудио: русский, любительский двухголосый закадровый (Parovoz Production), AC3 2.0, 48 kHz, 192 kbps

Код:

Общее
Формат                                   : AVI
Формат/Информация                        : Audio Video Interleave
Размер файла                             : 1,46 Гбайт
Продолжительность                        : 1 ч. 38 м.
Общий поток                              : 2108 Кбит/сек
Программа кодирования                    : VirtualDubMod 1.5.10.3 | www.virtualdub-fr.org || (build 2550/release)

Видео
Идентификатор                            : 0
Формат                                   : MPEG-4 Visual
Профиль формата                          : Advanced Simple@L5
Параметр BVOP формата                    : 2
Параметр QPel формата                    : Нет
Параметр GMC формата                     : Без точки перехода
Параметр матрицы формата                 : Default (MPEG)
Идентификатор кодека                     : XVID
Идентификатор кодека/Подсказка           : XviD
Продолжительность                        : 1 ч. 38 м.
Битрейт                                  : 1907 Кбит/сек
Ширина                                   : 720 пикселей
Высота                                   : 304 пикселя
Соотношение сторон                       : 2,35:1
Частота кадров                           : 23,976 кадра/сек
Цветовое пространство                    : YUV
Субдискретизация насыщенности            : 4:2:0
Битовая глубина                          : 8 бит
Тип развёртки                            : Прогрессивная
Метод сжатия                             : С потерями
Бит/(Пиксели*Кадры)                      : 0.363
Размер потока                            : 1,32 Гбайт (90%)
Библиотека кодирования                   : XviD 1.2.1 (UTC 2008-12-04)

Аудио
Идентификатор                            : 1
Формат                                   : AC-3
Формат/Информация                        : Audio Coding 3
Расширение режима                        : CM (complete main)
Параметр Endianness формата              : Big
Идентификатор кодека                     : 2000
Продолжительность                        : 1 ч. 38 м.
Вид битрейта                             : Постоянный
Битрейт                                  : 192 Кбит/сек
Каналы                                   : 2 канала
Расположение каналов                     : Front: L R
Частота                                  : 48,0 КГц
Метод сжатия                             : С потерями
Размер потока                            : 136 Мбайт (9%)
Выравнивание                             : Разделение по промежуткам
Продолжительность промежутка             : 42  мс. (1,00 видеокадр)
Время предзагрузки промежутка            : 500  мс.
Релиз группы:



picpicpicpicpic
Для увеличения картинки щелкните мышкой по превью

Этот торрент недоступен для скачивания без регистрации, однако доступен по публичной magnet-ссылке (источники с публичных трекеров). Перед использованием ссылки прочтите, пожалуйста Пользовательское соглашение, а также как можно дольше оставайтесь на раздаче! Для того, чтобы скачать сам торрент-файл (который видит больше источников), а также для того, чтобы поблагодарить релизера, вам необходимо зарегистрироваться. Если регистрироваться лень - вы можете также попробовать скачать релиз по нашим партнерским ссылкам ниже.

[underverse.su].t60612.torrent
Трекер: Зарегистрирован   [ 03.12.2015 23:30 ]  

Статус: проверено (by makkol at 04.12.2015 14:39)
Поблагодарили: 2 человека
Тип торрента: публичный - доступные источники с открытых трекеров: 
Размер: 1,46 GB (занимает 1/3 DVDR, для записи нужно 1 болванка DVDR/RW)
 
 
Похожие темы
Форум Тема Автор Торрент Отв. Посл. сооб.
Зарубежное кино [DVDRip, Low-Res HDRip, и т.д.] Ловушка для невесты / The Decoy Bride (Шери Фольксон) [2011 г., драма, комедия, DVDRip] [лицензия] 90ytr90
0 | 0

0 | 2343

20

17.04.2012 18:48

Зарубежное кино [DVDRip, Low-Res HDRip, и т.д.] Ловушка для Золушки / Trap for Cinderella / Wrong Identity - In der Haut einer Morderin (Иэн Софтли / Iain Softley) [2013 г., триллер, драма, криминал, DVDRip] DVO (Zelesk и Анна Завразина) 90ytr90
35 | 1

0 | 1727

18

31.10.2013 17:10

Зарубежное кино [DVDRip, Low-Res HDRip, и т.д.] Ловушка для Золушки / Trap for Cinderella / Wrong Identity - In der Haut einer Morderin (Иэн Софтли / Iain Softley) [2013 г., триллер, драма, криминал, DVDRip] DVO (Zelesk и Анна Завразина) + Original 90ytr90
2 | 0

0 | 1402

23

03.11.2013 08:19

T Зарубежное кино [DVDRip, Low-Res HDRip, и т.д.] Ловушка для привидения / Gespensterjager (Тоби Бауманн) [2015 г., фэнтези, комедия, семейный, HDRip] Dub (iTunes) makkol
1038 | 16

0 | 589

14

28.05.2016 13:12

Зарубежное кино [HDDVDRip / BDRip / WEB-DL / HDTV 1080/720р] Ловушка для привидения / Gespensterjager (Тоби Бауманн) [2015 г., фэнтези, комедия, семейный, BDRip 1080p] DVO + Original makkol
0 | 0

0 | 653

23

03.12.2015 23:46

T Зарубежное кино [HDDVDRip / BDRip / WEB-DL / HDTV 1080/720р] Ловушка для привидения / Gespensterjager (Тоби Бауманн) [2015 г., фэнтези, комедия, семейный, BDRip 720p] Dub (iTunes) + Original makkol
75 | 2

0 | 496

5

28.05.2016 13:23

T Зарубежное кино [HDDVDRip / BDRip / WEB-DL / HDTV 1080/720р] Ловушка для привидения / Gespensterjager (Тоби Бауманн) [2015 г., фэнтези, комедия, семейный, BDRip 1080p] Dub (iTunes) + Original makkol
3 | 0

0 | 543

5

28.05.2016 13:34


Яндекс.Метрика powered by Sphinx


В Н И М А Н И Е
Сайт не распространяет и не хранит электронные версии произведений, а лишь бесплатно и без коммерческой выгоды (не требуя взамен платы,
SMS и т.д.) предоставляет доступ к создаваемому пользователями каталогу ссылок на торрент-файлы, которые содержат только списки хеш-сумм.
Убедительная просьба с жалобами обращаться напрямую к пользователю, разместившему торрент файл.

Вверх