Loading...
Error

SOS: Спасите наши шкуры / SOS: Save Our Skins (Кент Соби) [2014 г., ужасы, комедия, DVDRip] VO + Original + Subs

Статистика раздачи
Размер:  1,45 GB   |    Зарегистрирован:  1 год   |    Скачан:  28 раз

Полного источника не было: 4 месяца 27 дней

Сидов:  0  |  0 KB/s  ]   Личеров:  0  |  0 KB/s  ]

* - сиды/пиры с внешних источников

   
 
Автор Сообщение

makkol Пол:Муж

02-Дек-2015 13:57

SOS: Спасите наши шкуры / SOS: Save Our Skins


Год выпуска: 2014
Жанр: ужасы, комедия
Производство: Великобритания , Канада , США [Baby Cow Productions Ltd., Duopoly, Farmhouse Productions, Independent Production Fund, Smiley Guy Studios]
Режиссер: Кент Соби
В ролях: Том Болтон, Крис Хейворд, Джеймс МакДугалл, Дейв Робертс, Нат Саундерс, Ханна Спир
Сюжет фильма:
Двое странных парней просыпаются в гостинице в Нью-Йорке и обнаруживают, что на Земле все исчезли.
Телефоны не работают, интернета нет, улицы пустынны. А по телевизору время от времени появляется видеоролик с башней и странной чёрной фигурой. Поняв, что они на Земле не одни, наши герои отправляются на поиски других выживших.
Однако ребятам предстоит пройти долгий путь, прежде чем они узнают, что произошло и куда все пропали...

  • Мировая премьера: 4 апреля 2014


Качество видео: DVDRip

Продолжительность: 01:25:41
Формат: AVI
Видео: XviD, 720x384 (1.85:1), 23.976 fps, 1898 kbps
Аудио #1: русский, любительский одноголосый закадровый (Barin101), AC3 2.0, 48 kHz, 256 kbps
Аудио #2: английский, оригинал, AC3 2.0, 48 kHz, 256 kbps
Субтитры: русские, английские внешние, SRT

Код:

Общее
Формат                                   : AVI
Формат/Информация                        : Audio Video Interleave
Профиль формата                          : OpenDML
Размер файла                             : 1,45 Гбайт
Продолжительность                        : 1 ч. 25 м.
Общий поток                              : 2429 Кбит/сек
Программа кодирования                    : XviD4PSP 6.0 / 54.29.105

Видео
Идентификатор                            : 0
Формат                                   : xvid
Идентификатор кодека                     : xvid
Продолжительность                        : 1 ч. 25 м.
Битрейт                                  : 1898 Кбит/сек
Ширина                                   : 720 пикселей
Высота                                   : 384 пикселя
Соотношение сторон                       : 1,85:1
Частота кадров                           : 23,976 кадра/сек
Бит/(Пиксели*Кадры)                      : 0.286
Размер потока                            : 1,14 Гбайт (78%)

Аудио #1
Идентификатор                            : 1
Формат                                   : AC-3
Формат/Информация                        : Audio Coding 3
Расширение режима                        : CM (complete main)
Параметр Endianness формата              : Big
Идентификатор кодека                     : 2000
Продолжительность                        : 1 ч. 25 м.
Вид битрейта                             : Постоянный
Битрейт                                  : 256 Кбит/сек
Каналы                                   : 2 канала
Расположение каналов                     : Front: L R
Частота                                  : 48,0 КГц
Битовая глубина                          : 16 бит
Метод сжатия                             : С потерями
Размер потока                            : 157 Мбайт (11%)
Выравнивание                             : Соединение по промежуткам
Продолжительность промежутка             : 32  мс. (0,77 видеокадр)

Аудио #2
Идентификатор                            : 2
Формат                                   : AC-3
Формат/Информация                        : Audio Coding 3
Расширение режима                        : CM (complete main)
Параметр Endianness формата              : Big
Идентификатор кодека                     : 2000
Продолжительность                        : 1 ч. 25 м.
Вид битрейта                             : Постоянный
Битрейт                                  : 256 Кбит/сек
Каналы                                   : 2 канала
Расположение каналов                     : Front: L R
Частота                                  : 48,0 КГц
Битовая глубина                          : 16 бит
Метод сжатия                             : С потерями
Размер потока                            : 157 Мбайт (11%)
Выравнивание                             : Соединение по промежуткам
Продолжительность промежутка             : 32  мс. (0,77 видеокадр)
picpicpicpicpic
Для увеличения картинки щелкните мышкой по превью

Этот торрент недоступен для скачивания без регистрации, однако доступен по публичной magnet-ссылке (источники с публичных трекеров). Перед использованием ссылки прочтите, пожалуйста Пользовательское соглашение, а также как можно дольше оставайтесь на раздаче! Для того, чтобы скачать сам торрент-файл (который видит больше источников), а также для того, чтобы поблагодарить релизера, вам необходимо зарегистрироваться. Если регистрироваться лень - вы можете также попробовать скачать релиз по нашим партнерским ссылкам ниже.

[underverse.su].t60565.torrent
Трекер: Зарегистрирован   [ 02.12.2015 13:57 ]  

Статус: проверено (by makkol at 04.12.2015 14:19)
Поблагодарили: пока никто не поблагодарил...
Тип торрента: публичный - доступные источники с открытых трекеров: 
Размер: 1,45 GB (занимает 1/3 DVDR, для записи нужно 1 болванка DVDR/RW)
 
 

Яндекс.Метрика powered by Sphinx


В Н И М А Н И Е
Сайт не распространяет и не хранит электронные версии произведений, а лишь бесплатно и без коммерческой выгоды (не требуя взамен платы,
SMS и т.д.) предоставляет доступ к создаваемому пользователями каталогу ссылок на торрент-файлы, которые содержат только списки хеш-сумм.
Убедительная просьба с жалобами обращаться напрямую к пользователю, разместившему торрент файл.

Вверх