Loading...
Error

Решала 2 (Роман Асхаев) [2015 г., драма, криминал, WEB-DLRip]

Статистика раздачи
Размер:  1,37 GB   |    Зарегистрирован:  1 год   |    Скачан:  81 раз
Сидов:  1  |  0,6 KB/s  ]   Личеров:  0  |  0 KB/s  ]

* - сиды/пиры с внешних источников

   
 
Автор Сообщение

makkol Пол:Муж

02-Дек-2015 11:15

Решала 2
«Что не сделали родители-вынуждено доделывать общество»


Год выпуска: 2015
Жанр: драма, криминал
Производство: Россия [Байкалкино, Гринбокс]
Режиссер: Роман Асхаев
В ролях: Александр Фролов, Моисей Куртанидзе, Константин Озеров, Чингиз Аздаев, Арина Есина, Руслан Балакшиев, Алина Намсараева
Сюжет фильма:
После событий, произошедших в первой части, прошло 4 года. Обстановка в городе напряженная, за сферы влияний борются два криминальных авторитета — Витя Черный и Добрый. В это время из тюрьмы выходит Завгар, и Витя Черный надеется на его поддержку. Но Завгар горит желанием отомстить Каше, ведь по его наводке он отправился за решетку. Каша уехал в другой город, он впервые в жизни по-настоящему счастлив. У него жена, маленький сын, но прошлое напоминает о себе, и теперь Каша вынужден решать, как жить дальше.

  • Российская премьера: 6 августа 2015


Качество видео: WEB-DLRip

Продолжительность: 01:22:35
Формат: AVI
Видео: XviD, 720x320, 25.000 fps, 1977 kbps
Аудио: русский, оригинал, AC3 2.0, 48 kHz, 384 kbps

Код:

Общее
Формат                                   : AVI
Формат/Информация                        : Audio Video Interleave
Размер файла                             : 1,37 Гбайт
Продолжительность                        : 1 ч. 22 м.
Общий поток                              : 2370 Кбит/сек
Программа кодирования                    : VirtualDubMod 1.5.10.3 | (build 2550/release)
Библиотека кодирования                   : VirtualDubMod build 2550/release

Видео
Идентификатор                            : 0
Формат                                   : MPEG-4 Visual
Профиль формата                          : Advanced Simple@L5
Параметр BVOP формата                    : 2
Параметр QPel формата                    : Нет
Параметр GMC формата                     : Без точки перехода
Параметр матрицы формата                 : Default (MPEG)
Идентификатор кодека                     : XVID
Идентификатор кодека/Подсказка           : XviD
Продолжительность                        : 1 ч. 22 м.
Битрейт                                  : 1977 Кбит/сек
Ширина                                   : 720 пикселей
Высота                                   : 320 пикселей
Соотношение сторон                       : 2,25:1
Частота кадров                           : 25,000 кадров/сек
Цветовое пространство                    : YUV
Субдискретизация насыщенности            : 4:2:0
Битовая глубина                          : 8 бит
Тип развёртки                            : Прогрессивная
Метод сжатия                             : С потерями
Бит/(Пиксели*Кадры)                      : 0.343
Размер потока                            : 1,14 Гбайт (83%)
Библиотека кодирования                   : XviD 73

Аудио
Идентификатор                            : 1
Формат                                   : AC-3
Формат/Информация                        : Audio Coding 3
Расширение режима                        : CM (complete main)
Параметр Endianness формата              : Big
Идентификатор кодека                     : 2000
Продолжительность                        : 1 ч. 22 м.
Вид битрейта                             : Постоянный
Битрейт                                  : 384 Кбит/сек
Каналы                                   : 2 канала
Расположение каналов                     : Front: L R
Частота                                  : 48,0 КГц
Метод сжатия                             : С потерями
Размер потока                            : 227 Мбайт (16%)
Выравнивание                             : Разделение по промежуткам
Продолжительность промежутка             : 40  мс. (1,00 видеокадр)
Время предзагрузки промежутка            : 500  мс.
picpicpicpic
Для увеличения картинки щелкните мышкой по превью

Этот торрент недоступен для скачивания без регистрации, однако доступен по публичной magnet-ссылке (источники с публичных трекеров). Перед использованием ссылки прочтите, пожалуйста Пользовательское соглашение, а также как можно дольше оставайтесь на раздаче! Для того, чтобы скачать сам торрент-файл (который видит больше источников), а также для того, чтобы поблагодарить релизера, вам необходимо зарегистрироваться. Если регистрироваться лень - вы можете также попробовать скачать релиз по нашим партнерским ссылкам ниже.

[underverse.su].t60558.torrent
Трекер: Зарегистрирован   [ 02.12.2015 11:15 ]  

Статус: проверено (by makkol at 04.12.2015 14:18)
Поблагодарили: 1 человек
Тип торрента: публичный - доступные источники с открытых трекеров: 
Размер: 1,37 GB (занимает 0,31 DVDR, для записи нужно 1 болванка DVDR/RW)
 
 
Похожие темы
Форум Тема Автор Торрент Отв. Посл. сооб.
Наше кино [HDDVDRip / BDRip / WEB-DL / HDTV 1080/720р] Решала 2 (Роман Асхаев) [2015 г., драма, криминал, WEB-DL 1080p] makkol
0 | 0

0 | 347

19

22.01.2016 22:51

rylik Пол:Муж

07-Янв-2016 07:49

режиссера выгнать, а актеров всех на 101км

90ytr90 

07-Янв-2016 15:55

rylik писал(а):

режиссера выгнать, а актеров всех на 101км


rylik, ежели всё кино с подобным (и ниже) рейтом на 101 версту, :sorry: чего смотреть будем?
Возраст: 66

Цитата:

Знак зодиака: Рак
Стаж: 3 месяца 29 дней
Сообщений: 1
Белоруссия
UL: 0 B
DL: 0 B
Рейтинг: -
Сид бонус: 0
Крутость: 0,02 Параметр, определяющий вклад пользователя в развитие трекера.

Репутация: 0

Яндекс.Метрика powered by Sphinx


В Н И М А Н И Е
Сайт не распространяет и не хранит электронные версии произведений, а лишь бесплатно и без коммерческой выгоды (не требуя взамен платы,
SMS и т.д.) предоставляет доступ к создаваемому пользователями каталогу ссылок на торрент-файлы, которые содержат только списки хеш-сумм.
Убедительная просьба с жалобами обращаться напрямую к пользователю, разместившему торрент файл.

Вверх