Loading...
Error

Морской бой / Battleship (Питер Берг / Peter Berg) [2012 г., фантастика, боевик, триллер, приключения, BDRip] Dub HQ Underverse

Статистика раздачи
Размер:  2,18 GB   |    Зарегистрирован:  1 год   |    Скачан:  30 раз
Сидов:  1  |  0 KB/s  ]   Личеров:  0  |  0 KB/s  ]

* - сиды/пиры с внешних источников

   
 
Автор Сообщение

HQ Underverse 

01-Дек-2015 14:12

Морской бой / Battleship


Год выпуска: 2012
Жанр: фантастика, боевик, триллер, приключения
Страна: США
Режиссер: Питер Берг / Peter Berg
В ролях: Тейлор Китч, Таданобу Асано, Бруклин Декер, Рианна, Лиам Нисон, Александр Скарсгард, Джесси Племонс, Грегори Д. Гэдсон, Хамиш Линклэйтер, Джон Туи
Сюжет фильма:
Мы посылаем сигналы в космос и ждем ответа. Но уверены ли мы, что хотим его получить? Что если пришельцы потенциально опасны? В 2009 году на конференции в Вашингтоне астронавт Эдгар Митчелл, побывавший на Луне, сделал сенсационное заявление о существовании внеземной жизни. Теперь мы знаем, контакт не просто возможен, он неизбежен!

  • Мировая премьера: 3 апреля 2012
  • Российская премьера: 19 апреля 2012

/
Качество видео: BDRip

Продолжительность: 02:11:14
Формат: avi
Видео: XviD, 720x304, 1915 kbps
Аудио #1: русский, дублированный [лицензия], AC3 5.1, 448 kbps
Аудио #2: английский, оригинал, AC3 5.1, 448 kbps (отдельным файлом)
Субтитры #1: внешние, SRT, русский
Субтитры #2: внешние, SRT, русский Forced
Субтитры #3: внешние, SRT, английский

Семпл: http://multi-up.com/1077475

Релиз группы:

Код:

General
Complete name                    : D:\Video\Movies\Releases\Battleship.2012.BDRip.XviD.AC3.Rus.D.HQ.Underverse.avi
Format                           : AVI
Format/Info                      : Audio Video Interleave
Format profile                   : OpenDML
File size                        : 2.18 GiB
Duration                         : 2h 11mn
Overall bit rate                 : 2 376 Kbps
Writing application              : VirtualDubMod 1.5.10.3 | www.virtualdub-fr.org || (build 2550/release)
Writing library                  : VirtualDubMod build 2550/release

Video
ID                               : 0
Format                           : MPEG-4 Visual
Format profile                   : Streaming Video@L1
Format settings, BVOP            : Yes
Format settings, QPel            : No
Format settings, GMC             : No warppoints
Format settings, Matrix          : Custom
Codec ID                         : XVID
Codec ID/Hint                    : XviD
Duration                         : 2h 11mn
Bit rate                         : 1 916 Kbps
Width                            : 720 pixels
Height                           : 304 pixels
Display aspect ratio             : 2.35
Frame rate                       : 23.976 fps
Resolution                       : 24 bits
Colorimetry                      : 4:2:0
Scan type                        : Progressive
Bits/(Pixel*Frame)               : 0.365
Stream size                      : 1.76 GiB (81%)
Writing library                  : XviD 67

Audio
ID                               : 1
Format                           : AC-3
Format/Info                      : Audio Coding 3
Codec ID                         : 2000
Duration                         : 2h 11mn
Bit rate mode                    : Constant
Bit rate                         : 448 Kbps
Channel(s)                       : 6 channels
Channel positions                : Front: L C R, Surround: L R, LFE
Sampling rate                    : 48.0 KHz
Stream size                      : 421 MiB (19%)
Alignment                        : Split accross interleaves
Interleave, duration             : 42 ms (1.00 video frame)
Interleave, preload duration     : 500 ms
Title                            : Rus Dub

General
Complete name                    : D:\Video\Movies\Releases\Battleship.2012.BDRip.XviD.AC3.Rus.D.HQ.Underverse.Eng.ac3
Format                           : AC-3
Format/Info                      : Audio Coding 3
File size                        : 421 MiB
Duration                         : 2h 11mn
Overall bit rate                 : 448 Kbps

Audio
Format                           : AC-3
Format/Info                      : Audio Coding 3
Duration                         : 2h 11mn
Bit rate mode                    : Constant
Bit rate                         : 448 Kbps
Channel(s)                       : 6 channels
Channel positions                : Front: L C R, Surround: L R, LFE
Sampling rate                    : 48.0 KHz
Stream size                      : 421 MiB (100%)

picpicpicpicpic
Для увеличения картинки щелкните мышкой по превью

Этот торрент недоступен для скачивания без регистрации, однако доступен по публичной magnet-ссылке (источники с публичных трекеров). Перед использованием ссылки прочтите, пожалуйста Пользовательское соглашение, а также как можно дольше оставайтесь на раздаче! Для того, чтобы скачать сам торрент-файл (который видит больше источников), а также для того, чтобы поблагодарить релизера, вам необходимо зарегистрироваться. Если регистрироваться лень - вы можете также попробовать скачать релиз по нашим партнерским ссылкам ниже.

[underverse.su].t60527.torrent
Трекер: Зарегистрирован   [ 01.12.2015 14:12 ]  

Статус: проверено (by Паукан at 06.12.2015 22:26)
Поблагодарили: 2 человека
Тип торрента: публичный - доступные источники с открытых трекеров: 
Размер: 2,18 GB (занимает 1/2 DVDR, для записи нужно 1 болванка DVDR/RW)
 
 
Похожие темы
Форум Тема Автор Торрент Отв. Посл. сооб.
Зарубежное кино [DVDRip, Low-Res HDRip, и т.д.] Морской бой / Battleship (Питер Берг) [2012, фантастика, боевик, триллер, приключения, военный, HDRip-AVC] zamez Greshnik
0 | 0

2 | 723

40

05.10.2012 11:29

Зарубежное кино [DVDRip, Low-Res HDRip, и т.д.] Морской Бой / Battleship (Питер Берг) [2012 г., фантастика, боевик, триллер, приключения, военный, BDRip-AVC] Dub Garnett
77 | 0

0 | 1408

51

29.12.2012 10:40

Зарубежное кино HQ Морской бой / Battleship (Питер Берг) [2012 г., фантастика, боевик, триллер, приключения, военный, HDRip] (Rus, Eng) HQ Underverse HQ Underverse
0 | 0

0 | 1374

95

13.08.2012 12:33

Зарубежное кино [HDDVDRip / BDRip / WEB-DL / HDTV 1080/720р] Морской бой / Battleship (Питер Берг / Peter Berg) [2012 г., фантастика, боевик, триллер, приключения, BDRip 1080p] Dub + Original 90ytr90
5 | 0

0 | 1122

16

16.03.2013 19:57

Зарубежное кино [HDDVDRip / BDRip / WEB-DL / HDTV 1080/720р] Морской бой / Battleship (Питер Берг) [2012 г., Фантастика, Боевик BDRip 720p] Dub (Rus) + Original (Eng) + Subs (Rus, Eng) / 60 FPS Ведьмочка
4 | 0

0 | 1083

23

07.07.2014 18:30


Яндекс.Метрика powered by Sphinx


В Н И М А Н И Е
Сайт не распространяет и не хранит электронные версии произведений, а лишь бесплатно и без коммерческой выгоды (не требуя взамен платы,
SMS и т.д.) предоставляет доступ к создаваемому пользователями каталогу ссылок на торрент-файлы, которые содержат только списки хеш-сумм.
Убедительная просьба с жалобами обращаться напрямую к пользователю, разместившему торрент файл.

Вверх