Loading...
Error

Little Thirteen / Тринадцатилетняя (Кристиан Кландт) [2012 г., драма, DVDRip-AVC] AVO (Ю.Сербин) + Original

Статистика раздачи
Размер:  2,05 GB   |    Зарегистрирован:  1 год   |    Скачан:  76 раз

Полного источника не было: 9 дней

Сидов:  0  |  0 KB/s  ]   Личеров:  0  |  0 KB/s  ]

* - сиды/пиры с внешних источников

   
 
Автор Сообщение

romeoexpert Пол:Муж

29-Ноя-2015 18:30

Little Thirteen / Тринадцатилетняя


Год выпуска: 2012
Жанр: драма
Страна: Германия
Режиссер: Кристиан Кландт
В ролях: Мюриэль Уиммер, Антония Путилофф, Джозеф Конрад Бундшух, Изабелль Гершке, Филипп Кубитца, Герди Цинт, Гиза Флаке, Клаудиа Гайслер-Бадинг, Хирон Элиас Крэз, Пелагия Капоглоу
Сюжет фильма:
13-летняя Сара и ее лучшая подруга Чарли уже потеряли счет парням, с которыми спали: свидания на одну ночь, анонимные и неразличимые связи без обязательств. Но когда Сара знакомится в чате с 18-летним Лукасом, ее впервые охватывает жажда реальных отношений и даже настоящей любви. Но интересна ли она Лукасу? Или он просто использует Сару по причинам за гранью любви и привязанности? Тем временем, Чарли нужно разыскать отца своего будущего ребенка, а матери Сары нужно осознать тот факт, что ее дочь повзрослела...
Три дня из жизни группы тинейджеров, пытающихся найти свое место в жизни.

Качество видео: DVDRip-AVC

Продолжительность: 01:31:18
Формат: MKV
Видео: MPEG-4 AVC x264, 720x432@1015x432, 2309 Kbps
Аудио #1: русский, одноголосый закадровый [авторский, Ю.Сербин], AC3 5.1, 448 kbps
Аудио #2: немецкий, оригинал, AC3 5.1, 448 kbps

Код:

General
Unique ID                   : 242798085614089417152436633980318911578 (0xB6A935D9A7C4F0CEA701BC0A5CC60C5A)
Complete name               : P:\Little.Thirteen_2012.DVD9Rip -AVC.mkv
Format                      : Matroska
Format version              : Version 4 / Version 2
File size                   : 2.05 GiB
Duration                    : 1h 31mn
Overall bit rate            : 3 206 Kbps
Encoded date                : UTC 2015-11-29 11:10:39
Writing application         : mkvmerge v7.5.0 ('Glass Culture') 64bit built on Jan  4 2015 16:48:44
Writing library             : libebml v1.3.1 + libmatroska v1.4.2
DURATION                    : 01:31:18.752000000
NUMBER_OF_FRAMES            : 171211
NUMBER_OF_BYTES             : 306810112
_STATISTICS_WRITING_APP     : mkvmerge v7.5.0 ('Glass Culture') 64bit built on Jan  4 2015 16:48:44
_STATISTICS_WRITING_DATE_UT : 2015-11-29 11:10:39
_STATISTICS_TAGS            : BPS DURATION NUMBER_OF_FRAMES NUMBER_OF_BYTES

Video
ID                          : 1
Format                      : AVC
Format/Info                 : Advanced Video Codec
Format profile              : High@L3.0
Format settings, CABAC      : Yes
Format settings, ReFrames   : 5 frames
Codec ID                    : V_MPEG4/ISO/AVC
Duration                    : 1h 31mn
Bit rate                    : 2 309 Kbps
Width                       : 720 pixels
Height                      : 432 pixels
Display aspect ratio        : 2.35:1
Original display aspect rat : 2.35:1
Frame rate mode             : Constant
Frame rate                  : 25.000 fps
Color space                 : YUV
Chroma subsampling          : 4:2:0
Bit depth                   : 8 bits
Scan type                   : Progressive
Bits/(Pixel*Frame)          : 0.297
Stream size                 : 1.43 GiB (70%)
Writing library             : x264 core 146 r2538 121396c
Encoding settings           : cabac=1 / ref=5 / deblock=1:-1:-1 / analyse=0x3:0x133 / me=umh / subme=7 / psy=1 / psy_rd=1.00:0.20 / mixed_ref=1 / me_range=16 / chroma_me=1 / trellis=2 / 8x8dct=1 / cqm=0 / deadzone=21,11 / fast_pskip=0 / chroma_qp_offset=-3 / threads=8 / lookahead_threads=1 / sliced_threads=0 / nr=0 / decimate=0 / interlaced=0 / bluray_compat=0 / constrained_intra=0 / bframes=3 / b_pyramid=2 / b_adapt=2 / b_bias=0 / direct=3 / weightb=1 / open_gop=0 / weightp=2 / keyint=250 / keyint_min=25 / scenecut=40 / intra_refresh=0 / rc_lookahead=50 / rc=2pass / mbtree=1 / bitrate=2309 / ratetol=1.0 / qcomp=0.60 / qpmin=0 / qpmax=69 / qpstep=4 / cplxblur=20.0 / qblur=0.5 / ip_ratio=1.40 / aq=1:1.00
Default                     : Yes
Forced                      : No

Audio #1
ID                          : 2
Format                      : AC-3
Format/Info                 : Audio Coding 3
Mode extension              : CM (complete main)
Format settings, Endianness : Big
Codec ID                    : A_AC3
Duration                    : 1h 31mn
Bit rate mode               : Constant
Bit rate                    : 448 Kbps
Channel(s)                  : 6 channels
Channel positions           : Front: L C R, Side: L R, LFE
Sampling rate               : 48.0 KHz
Bit depth                   : 16 bits
Compression mode            : Lossy
Stream size                 : 293 MiB (14%)
Language                    : Russian
Default                     : Yes
Forced                      : No

Audio #2
ID                          : 3
Format                      : AC-3
Format/Info                 : Audio Coding 3
Mode extension              : CM (complete main)
Format settings, Endianness : Big
Codec ID                    : A_AC3
Duration                    : 1h 31mn
Bit rate mode               : Constant
Bit rate                    : 448 Kbps
Channel(s)                  : 6 channels
Channel positions           : Front: L C R, Side: L R, LFE
Sampling rate               : 48.0 KHz
Bit depth                   : 16 bits
Compression mode            : Lossy
Stream size                 : 293 MiB (14%)
Language                    : English
Default                     : No
Forced                      : No
picpicpicpicpic

Для увеличения картинки щелкните мышкой по превью

Этот торрент недоступен для скачивания без регистрации, однако доступен по публичной magnet-ссылке (источники с публичных трекеров). Перед использованием ссылки прочтите, пожалуйста Пользовательское соглашение, а также как можно дольше оставайтесь на раздаче! Для того, чтобы скачать сам торрент-файл (который видит больше источников), а также для того, чтобы поблагодарить релизера, вам необходимо зарегистрироваться. Если регистрироваться лень - вы можете также попробовать скачать релиз по нашим партнерским ссылкам ниже.

[underverse.su].t60466.torrent
Трекер: Зарегистрирован   [ 29.11.2015 18:30 ]  

Статус: проверено (by makkol at 29.11.2015 22:27)
Поблагодарили: 2 человека
Тип торрента: публичный - доступные источники с открытых трекеров: 
Размер: 2,05 GB (занимает 0,47 DVDR, для записи нужно 1 болванка DVDR/RW)
 
 


Последний раз редактировалось: romeoexpert (29.11.2015 22:19), всего редактировалось 2 раз(а)

makkol Пол:Муж

29-Ноя-2015 21:29

Качество видео здесь DVDRip-AVC.
Это анаморф 720x432@1015x432, что обязательно нужно указать. И скриншоты желательно делать такими-же, какое изображение будет в итоге на экране плейера (1015x432)

romeoexpert Пол:Муж

29-Ноя-2015 22:25

makkol

Цитата:

Качество видео здесь DVDRip-AVC.
Это анаморф 720x432@1015x432, что обязательно нужно указать. И скриншоты желательно делать такими-же, какое изображение будет в итоге на экране плейера (1015x432)
Вы правы, исправил.

Яндекс.Метрика powered by Sphinx


В Н И М А Н И Е
Сайт не распространяет и не хранит электронные версии произведений, а лишь бесплатно и без коммерческой выгоды (не требуя взамен платы,
SMS и т.д.) предоставляет доступ к создаваемому пользователями каталогу ссылок на торрент-файлы, которые содержат только списки хеш-сумм.
Убедительная просьба с жалобами обращаться напрямую к пользователю, разместившему торрент файл.

Вверх