Loading...
Error

Новые русские (Камила Сафина, Григорий Добрыгин, Оксана Михеева, Кирилл Плетнёв, Жора Крыжовников) [2015 г., комедия, триллер, фантастика, драма, WEB-DLRip]

Статистика раздачи
Размер:  1,37 GB   |    Зарегистрирован:  1 год   |    Скачан:  124 раза

Полного источника не было: 39 минут

Сидов:  0  |  0 KB/s  ]   Личеров:  0  |  0 KB/s  ]

* - сиды/пиры с внешних источников

   
 
Автор Сообщение

makkol Пол:Муж

28-Ноя-2015 10:31

Новые русские


Год выпуска: 2015
Жанр: комедия, триллер, фантастика, драма
Производство: Россия [Лук-фильм, Метрафильмс]
Режиссер: Камила Сафина, Григорий Добрыгин, Оксана Михеева, Кирилл Плетнёв, Жора Крыжовников
В ролях: Виктор Сухоруков, Фандус Гаптуллин, Владимир Любовский, Максим Бартош, Елена Сердюкова, Сергей Маковецкий, Джордже Пистерьяну, Бернардо Арриас Поррас, Александр Яценко, Екатерина Щеглова
Сюжет фильма:
Коллекция короткометражных фильмов. Все шесть работ сделаны молодыми российскими режиссерами, все отличает та свобода, которую редко встретишь в большом отечественном кино. Молодежь не зависит от финансового диктата, ей плевать на цензурные запреты, она смела в обращении с жанрами и не стесняется нарушать любые правила.

  • Российская премьера: 4 июня 2015


Качество видео: WEB-DLRip

Продолжительность: 01:29:10
Формат: AVI
Видео: XviD, 720x400 (16:9), 24.000 fps, 1992 kbps
Аудио: русский, оригинал (iTunes), AC3 2.0, 48 kHz, 192 kbps

Код:

General
Complete name : H0Bye.PyCCk1e.2015.O.WEB-DLRip.avi
Format : AVI
Format/Info : Audio Video Interleave
File size : 1.37 GiB
Duration : 1h 29mn
Overall bit rate : 2 193 Kbps
Writing application : VirtualDubMod 1.5.10.3 | www.virtualdub-fr.org || (build 2550/release)
Writing library : VirtualDubMod build 2550/release

Video
ID : 0
Format : MPEG-4 Visual
Format profile : Advanced Simple@L5
Format settings, BVOP : 2
Format settings, QPel : No
Format settings, GMC : No warppoints
Format settings, Matrix : Default (MPEG)
Codec ID : XVID
Codec ID/Hint : XviD
Duration : 1h 29mn
Bit rate : 1 992 Kbps
Width : 720 pixels
Height : 400 pixels
Display aspect ratio : 16:9
Frame rate : 24.000 fps
Color space : YUV
Chroma subsampling : 4:2:0
Bit depth : 8 bits
Scan type : Progressive
Compression mode : Lossy
Bits/(Pixel*Frame) : 0.288
Stream size : 1.24 GiB (91%)
Writing library : XviD 1.2.1 (UTC 2008-12-04)

Audio
ID : 1
Format : AC-3
Format/Info : Audio Coding 3
Mode extension : CM (complete main)
Format settings, Endianness : Big
Codec ID : 2000
Duration : 1h 29mn
Bit rate mode : Constant
Bit rate : 192 Kbps
Channel count : 2 channels
Channel positions : Front: L R
Sampling rate : 48.0 KHz
Bit depth : 16 bits
Compression mode : Lossy
Stream size : 122 MiB (9%)
Alignment : Split accross interleaves
Interleave, duration : 42 ms (1.00 video frame)
Interleave, preload duration : 500 ms
picpicpicpicpic
Для увеличения картинки щелкните мышкой по превью

Этот торрент недоступен для скачивания без регистрации, однако доступен по публичной magnet-ссылке (источники с публичных трекеров). Перед использованием ссылки прочтите, пожалуйста Пользовательское соглашение, а также как можно дольше оставайтесь на раздаче! Для того, чтобы скачать сам торрент-файл (который видит больше источников), а также для того, чтобы поблагодарить релизера, вам необходимо зарегистрироваться. Если регистрироваться лень - вы можете также попробовать скачать релиз по нашим партнерским ссылкам ниже.

[underverse.su].t60426.torrent
Трекер: Зарегистрирован   [ 28.11.2015 10:31 ]  

Статус: T временная (by makkol at 28.11.2015 11:21)
Поблагодарили: пока никто не поблагодарил...
Тип торрента: публичный - доступные источники с открытых трекеров: 
Размер: 1,37 GB (занимает 0,31 DVDR, для записи нужно 1 болванка DVDR/RW)
 
 
Похожие темы
Форум Тема Автор Торрент Отв. Посл. сооб.
Наше кино [DVDRip, Low-Res HDRip, и т.д.] Новые русские 2 (Кирилл Плетнёв, Владлена Санду, Светлана Самошина) [2015 г., комедия, триллер, драма, WEBRip] makkol
40 | 1

0 | 772

97

05.12.2015 09:54

Другие фильмы Новые русские сенсации. Первые леди Новороссии. [2014 г., документальный, TVRip] матроскин
0 | 0

2 | 626

19

03.02.2015 22:03

Другие фильмы Новые русские сенсации. Исповедь рабыни Тимошенко [2014 г., документальный, TVRip] матроскин
0 | 1

2 | 641

9

13.02.2015 11:03

Другие фильмы Новые русские сенсации. Украина в законе [2015 г., документальный, TVRip] матроскин
0 | 0

2 | 1221

14

28.02.2015 06:19

Другие фильмы Новые русские сенсации. Майдан. Как заказать Украину. [2015 г., документальный, TVRip] матроскин
0 | 1

2 | 1019

15

22.02.2015 17:20

T Наше кино [HDDVDRip / BDRip / WEB-DL / HDTV 1080/720р] Новые русские (Камила Сафина, Григорий Добрыгин, Оксана Михеева, Кирилл Плетнёв, Жора Крыжовников) [2015 г., комедия, триллер, фантастика, драма, WEB-DL 1080p] makkol
21 | 1

0 | 1293

81

28.11.2015 10:40


Яндекс.Метрика powered by Sphinx


В Н И М А Н И Е
Сайт не распространяет и не хранит электронные версии произведений, а лишь бесплатно и без коммерческой выгоды (не требуя взамен платы,
SMS и т.д.) предоставляет доступ к создаваемому пользователями каталогу ссылок на торрент-файлы, которые содержат только списки хеш-сумм.
Убедительная просьба с жалобами обращаться напрямую к пользователю, разместившему торрент файл.

Вверх