Loading...
Error

На самом дне океана / The Deep End of the Ocean (Улу Гросбард) [1999 г., драма, DVDRip] 2xMVO + Original + Subs

Статистика раздачи
Размер:  2,19 GB   |    Зарегистрирован:  1 год   |    Скачан:  14 раз

Полного источника не было: 14 дней

Сидов:  0  |  0 KB/s  ]   Личеров:  0  |  0 KB/s  ]

* - сиды/пиры с внешних источников

   
 
Автор Сообщение

makkol Пол:Муж

27-Ноя-2015 13:53

На самом дне океана / The Deep End of the Ocean
«У океана только одно дно, самого дна не бывает»


Год выпуска: 1999
Жанр: драма
Производство: США [Columbia Pictures Corporation, Mandalay Entertainment, Via Rosa Productions]
Режиссер: Улу Гросбард
В ролях: Мишель Пфайффер, Трит Уильямс, Вупи Голдберг, Джонатан Джексон, Кори Бак, Райан Мерриман, Алекса Вега, Майкл МакГрэйди, Бренда Стронг, Майкл МакЭлрой
Сюжет фильма:
Молодая привлекательная женщина Бет Каппадора вместе с мужем Пэтом и тремя детьми отправляется на встречу выпускников своего колледжа. Приехав в гостиницу, она в суматохе всего лишь на мгновение отходит от своих детей. И случается непоправимое. Ее трехлетний сын бесследно исчезает, словно растворившись в переполненном людьми холле отеля. Надежда отыскать мальчика тает с каждой минутой. Его не видел никто. Все поиски оказываются безрезультатными. Время идет, но Бет не может смириться с потерей ребенка…

Экранизация, по произведению Жаклин Митчард.

  • Мировая премьера: 12 марта 1999


Качество видео: DVDRip

Продолжительность: 01:44:14
Формат: AVI
Видео: XviD, 720x400 (16:9), 25.000 fps, 1955 kbps
Аудио #1: русский, профессиональный многоголосый закадровый (Видеосервис), AC3 5.1, 48 kHz, 448 kbps
Аудио #2: русский, профессиональный многоголосый закадровый (1 канал), MP3 2.0, 48 kHz, 128 kbps
Аудио #3: английский, оригинал, AC3 5.1, 48 kHz, 448 kbps
Субтитры: русские внешние, SRT

Код:

Общее
Полное имя                               : The.Deep.End.of.the.Ocean.1999.dvdrip_[2.18].avi
Формат                                   : AVI
Формат/Информация                        : Audio Video Interleave
Профиль формата                          : OpenDML
Размер файла                             : 2,19 Гбайт
Продолжительность                        : 1 ч. 44 м.
Общий поток                              : 3003 Кбит/сек
Программа кодирования                    : VirtualDubMod 1.5.10.2 (build 2540/release)
Библиотека кодирования                   : VirtualDubMod build 2540/release

Видео
Идентификатор                            : 0
Формат                                   : MPEG-4 Visual
Профиль формата                          : Advanced Simple@L5
Параметр BVOP формата                    : 1
Параметр QPel формата                    : Нет
Параметр GMC формата                     : Без точки перехода
Параметр матрицы формата                 : Default (MPEG)
Идентификатор кодека                     : XVID
Идентификатор кодека/Подсказка           : XviD
Продолжительность                        : 1 ч. 44 м.
Битрейт                                  : 1955 Кбит/сек
Ширина                                   : 720 пикселей
Высота                                   : 400 пикселей
Соотношение сторон                       : 16:9
Частота кадров                           : 25,000 кадров/сек
Цветовое пространство                    : YUV
Субдискретизация насыщенности            : 4:2:0
Битовая глубина                          : 8 бит
Тип развёртки                            : Прогрессивная
Метод сжатия                             : С потерями
Бит/(Пиксели*Кадры)                      : 0.271
Размер потока                            : 1,42 Гбайт (65%)
Библиотека кодирования                   : XviD 1.2.0.dev47 (UTC 2006-11-01)

Аудио #1
Идентификатор                            : 1
Формат                                   : AC-3
Формат/Информация                        : Audio Coding 3
Расширение режима                        : CM (complete main)
Параметр Endianness формата              : Big
Идентификатор кодека                     : 2000
Продолжительность                        : 1 ч. 44 м.
Вид битрейта                             : Постоянный
Битрейт                                  : 448 Кбит/сек
Каналы                                   : 6 каналов
Расположение каналов                     : Front: L C R, Side: L R, LFE
Частота                                  : 48,0 КГц
Битовая глубина                          : 16 бит
Метод сжатия                             : С потерями
Размер потока                            : 334 Мбайт (15%)
Выравнивание                             : Разделение по промежуткам
Продолжительность промежутка             : 40  мс. (1,00 видеокадр)
Время предзагрузки промежутка            : 500  мс.

Аудио #2
Идентификатор                            : 2
Формат                                   : MPEG Audio
Версия формата                           : Version 1
Профиль формата                          : Layer 3
Идентификатор кодека                     : 55
Идентификатор кодека/Подсказка           : MP3
Продолжительность                        : 1 ч. 44 м.
Вид битрейта                             : Постоянный
Битрейт                                  : 128 Кбит/сек
Каналы                                   : 2 канала
Частота                                  : 48,0 КГц
Метод сжатия                             : С потерями
Размер потока                            : 95,4 Мбайт (4%)
Выравнивание                             : Соединение по промежуткам
Продолжительность промежутка             : 40  мс. (1,00 видеокадр)
Время предзагрузки промежутка            : 504  мс.

Аудио #3
Идентификатор                            : 3
Формат                                   : AC-3
Формат/Информация                        : Audio Coding 3
Расширение режима                        : CM (complete main)
Параметр Endianness формата              : Big
Идентификатор кодека                     : 2000
Продолжительность                        : 1 ч. 44 м.
Вид битрейта                             : Постоянный
Битрейт                                  : 448 Кбит/сек
Каналы                                   : 6 каналов
Расположение каналов                     : Front: L C R, Side: L R, LFE
Частота                                  : 48,0 КГц
Битовая глубина                          : 16 бит
Метод сжатия                             : С потерями
Размер потока                            : 334 Мбайт (15%)
Выравнивание                             : Разделение по промежуткам
Продолжительность промежутка             : 40  мс. (1,00 видеокадр)
Время предзагрузки промежутка            : 500  мс.
Преодолев сотни миль, Бэт Каппадора вместе с тремя детьми, наконец, добралась до отеля, где должна была пройти встреча университетских выпускников. Поручив подруге опеку годовалой Керри, она, усадив трехлетнего Бена на тележку с вещами, направилась к стойке регистрации, приказав семилетнему Винсенту держать брата за руку, пока она не вернётся.

Пробравшись сквозь толкущуюся толпу обратно, Бэт нашла одиноко стоящего, испуганного Винсента, объяснившего, что Бен вырвал свою руку и убежал. Призвав на помощь всех своих знакомых, растерянная мамаша тщетно пыталась найти сына, который, как выяснилось, имел склонность играть в прятки. Только на этот раз дело оказалось куда серьёзней.

Подоспевшая на помощь инспектор полиции Кэнди Блисс (проходная роль Вупи Голдберг), работает тщательно, но всё также — тщетно. Массированные поиски с привлечением волонтёров-добровольцев оказываются безрезультатными. Мальчик исчез. Как кажется, навсегда.

Драма только начинается, когда депрессивная Бэт, забывшись, и забыв обо всём, замыкается в себе, потеряв интерес к жизни, к семье и своим детям. Она чувствует плохо скрываемый упрёк мужа, она винит себя, она пытается обо всем забыть.

Услышав спор, за дверями притих испуганный Винсент, пытающийся расшевелить свою спящую сестру, чтобы она своим криком прекратила кошмар очередной родительской ссоры. Никому нет дела до того, чем мучается и как страдает его душа.

Спустя девять лет, переехав в Чикаго, смирившаяся с утратой мать, встречает на пороге своего дома Сэма Карраса, который (о, ужас) — вылитый фоторобот её пропавшего сына.

Драма, раскручиваясь, выходит на новый виток, вовлекая в кошмарный водоворот ничего не подозревавшего о похищении приёмного отца мальчика, вынуждая Сэма вживаться в свою старую новую семью, тоскуя по разлучённому с ним отчиму.

При этом не остаётся без внимания знаковое поведение шестнадцатилетнего Винсента, по-своему переживающего возвращение и трудную адаптацию своего младшего брата. Что-то камнем лежит на его сердце, заставляя совершать экспрессивные поступки, мучиться и страдать.

Эпизоды с участием Райана Мерримана (Бэн/Сэм) и Джонатана Джексона (Винсент) занимают не так много экранного времени, но каждый из них несет явный и ощутимый заряд напряжения. Даже Мишель Пфайффер, слишком суматошная в начале картины, теперь, в диалогах с Мерриманом, выглядит куда уверенней и спокойней.

Однако, стоит ей оказаться наедине с расстроенным Джексоном, как от её старательности не остается и следа. Юноша легко переигрывает партнёршу (куда там Триту Уильямсу — не догонишь!) и кажется, что именно он возьмёт главный приз. Ан- нет: ещё одна сцена и, сомнений нет — приз надо делить надвое.

Мерриман и Джексон, Джексон и Мерриман. Они могут смотреть друг другу в глаза и видеть в них не свое отражение, а придуманный сценаристами образ. Они понимают друг друга не как актёр — актёра, а как персонаж — персонажа, они строят свою работу на реакциях партнёра, и — не проигрывают.

Эти парни просто-таки накаляют атмосферу ожиданием совершенно неочевидной развязки. Ведь вопрос, в конце концов, даже не в том, какой выбор сделает Бэн, а в том, что скрывалось на самом дне винсентовой души. (gordy)
Релиз группы:

picpicpicpicpic
Для увеличения картинки щелкните мышкой по превью

Этот торрент недоступен для скачивания без регистрации, однако доступен по публичной magnet-ссылке (источники с публичных трекеров). Перед использованием ссылки прочтите, пожалуйста Пользовательское соглашение, а также как можно дольше оставайтесь на раздаче! Для того, чтобы скачать сам торрент-файл (который видит больше источников), а также для того, чтобы поблагодарить релизера, вам необходимо зарегистрироваться. Если регистрироваться лень - вы можете также попробовать скачать релиз по нашим партнерским ссылкам ниже.

[underverse.su].t60380.torrent
Трекер: Зарегистрирован   [ 27.11.2015 13:53 ]  

Статус: проверено (by makkol at 28.11.2015 11:15)
Поблагодарили: 1 человек
Тип торрента: публичный - доступные источники с открытых трекеров: 
Размер: 2,19 GB (занимает 1/2 DVDR, для записи нужно 1 болванка DVDR/RW)
 
 

Яндекс.Метрика powered by Sphinx


В Н И М А Н И Е
Сайт не распространяет и не хранит электронные версии произведений, а лишь бесплатно и без коммерческой выгоды (не требуя взамен платы,
SMS и т.д.) предоставляет доступ к создаваемому пользователями каталогу ссылок на торрент-файлы, которые содержат только списки хеш-сумм.
Убедительная просьба с жалобами обращаться напрямую к пользователю, разместившему торрент файл.

Вверх